Adam Grimes - The Art And Science Of Trading .

Download Now

[/center]
[center]Adam Grimes - The Art And Science Of Trading
WEBRip | English | MP4 + PDF Guides | 1280 x 720 | AVC ~344 Kbps | 25 fps
AAC | 256 Kbps | 48.0 KHz | 2 channels | ~20 hours | 4.82 GB
Genre: eLearning Video / Trading, Stock
These videos were made by the author himself based an his famous book titled 'The Art and Science of Trading'


Part 1:
Chapter 1: Module 1-Chartreading 101
Chapter 2: Module 2-Chartreading, Going Deeper
Chapter 3: Module 3-Market Structure & Price Action
Chapter 4: Module 4-The Pullback
Chapter 5: Module 5-The Anti
Chapter 6: Module 6-The Failure Test
Chapter 7: Module 7-Breakouts
Chapter 8: Module 8-Pattern Failures
Chapter 9: Module 9: Practical Trading Psychology

Part 2
Chapter 10: Academic Theories of Market Behavior
Chapter 11: Tools for Quantitative Analysis of Market Data
Chapter 12: Universe & Methodology
Chapter 13: Fibonacci Retracements
Chapter 14: Moving Averages
Chapter 15: The Opening Range Phenomenon
Chapter 16: Quantitative Evidence of the Two Forces

Adam's Bio

Adam Grimes has well over two decades of experience in the industry as a trader, analyst and system developer. Growing up in an agricultural community in America's Midwest, Adam's first trading experiences were in agricultural commodities and futures. He then moved to currency futures, trading during the Asian Financial Crisis, and then on to stock index futures, options, and individual stocks. His trading experience covers all major asset classes-futures, currencies, stocks, options, and other derivatives, and the full range of timeframes from very short term scalping to constructing portfolios for multi-year holding periods.

Adam holds an MBA from The Ohio State University. He currently is President of Talon Advisors, LLC, where he writes daily market commentary and institutional advisory. He also shares daily market analysis and educational content at MarketLife, LLC

General
Complete name : 5 - Trading Antis\5-3.MP4
Format : MPEG-4
Format profile : Base Media / Version 2
Codec ID : mp42 (mp42/mp41/isom/avc1)
File size : 130 MiB
Duration : 30 min 6 s
Overall bit rate mode : Variable
Overall bit rate : 604 kb/s
Encoded date : UTC 2017-10-24 15:19:51
Tagged date : UTC 2017-10-24 15:19:51

Video
ID : 1
Format : AVC
Format/Info : Advanced Video Codec
Format profile : [email protected]
Format settings : CABAC / 5 Ref Frames
Format settings, CABAC : Yes
Format settings, RefFrames : 5 frames
Codec ID : avc1
Codec ID/Info : Advanced Video Coding
Duration : 30 min 6 s
Bit rate : 344 kb/s
Width : 1 280 pixels
Height : 720 pixels
Display aspect ratio : 16:9
Frame rate mode : Constant
Frame rate : 25.000 FPS
Color space : YUV
Chroma subsampling : 4:2:0
Bit depth : 8 bits
Scan type : Progressive
Bits/(Pixel*Frame) : 0.015
Stream size : 74.1 MiB (57%)
Writing library : x264 core 152 r10 ba24899
Encoding settings : cabac=1 / ref=5 / deblock=1:0:0 / analyse=0x3:0x113 / me=hex / subme=8 / psy=1 / psy_rd=1.00:0.00 / mixed_ref=1 / me_range=16 / chroma_me=1 / trellis=2 / 8x8dct=1 / cqm=0 / deadzone=21,11 / fast_pskip=1 / chroma_qp_offset=-2 / threads=22 / lookahead_threads=3 / sliced_threads=0 / nr=0 / decimate=1 / interlaced=0 / bluray_compat=0 / stitchable=1 / constrained_intra=0 / bframes=3 / b_pyramid=2 / b_adapt=2 / b_bias=0 / direct=3 / weightb=1 / open_gop=0 / weightp=2 / keyint=infinite / keyint_min=25 / scenecut=40 / intra_refresh=0 / rc_lookahead=50 / rc=crf / mbtree=1 / crf=20.0 / qcomp=0.60 / qpmin=5 / qpmax=69 / qpstep=4 / vbv_maxrate=2750 / vbv_bufsize=7500 / crf_max=0.0 / nal_hrd=none / filler=0 / ip_ratio=1.40 / aq=1:1.00
Encoded date : UTC 2017-10-24 15:19:51
Tagged date : UTC 2017-10-24 15:19:51
Color range : Limited
Color primaries : BT.709
Transfer characteristics : BT.709
Matrix coefficients : BT.709

Audio
ID : 2
Format : AAC
Format/Info : Advanced Audio Codec
Format profile : LC
Codec ID : mp4a-40-2
Duration : 30 min 6 s
Bit rate mode : Variable
Bit rate : 256 kb/s
Channel(s) : 2 channels
Channel positions : Front: L R
Sampling rate : 48.0 kHz
Frame rate : 46.875 FPS (1024 SPF)
Compression mode : Lossy
Stream size : 55.1 MiB (42%)
Encoded date : UTC 2017-10-24 15:19:51
Tagged date : UTC 2017-10-24 15:19:51

Screenshots


[/center]
[center]

[/center]

[center]Download link:

rapidgator_net:
https://rapidgator.net/file/6cb6b845012ab970aacd2cfabcc4a35d/1jg4w.Adam.Grimes..The.Art.And.Science.Of.Trading.part01.rar.html
https://rapidgator.net/file/d7045837b5d1f4bdf1201ed52d9a9085/1jg4w.Adam.Grimes..The.Art.And.Science.Of.Trading.part02.rar.html
https://rapidgator.net/file/7e0bc8201fb31dac7c0c9c97eb968203/1jg4w.Adam.Grimes..The.Art.And.Science.Of.Trading.part03.rar.html
https://rapidgator.net/file/81903ff6b9b806cefe6fd160059dc078/1jg4w.Adam.Grimes..The.Art.And.Science.Of.Trading.part04.rar.html
https://rapidgator.net/file/db961adeb01944552773cffb018309b7/1jg4w.Adam.Grimes..The.Art.And.Science.Of.Trading.part05.rar.html
https://rapidgator.net/file/d9eca6452dc0abc889eac86e6b46258a/1jg4w.Adam.Grimes..The.Art.And.Science.Of.Trading.part06.rar.html
https://rapidgator.net/file/8c59f6155e5a84b00c0f4126452b8e63/1jg4w.Adam.Grimes..The.Art.And.Science.Of.Trading.part07.rar.html
https://rapidgator.net/file/288b84ee3267d4477967a5f17a0ddb6a/1jg4w.Adam.Grimes..The.Art.And.Science.Of.Trading.part08.rar.html
https://rapidgator.net/file/2ec2d99cdf0f0227bae7a15caf6ff113/1jg4w.Adam.Grimes..The.Art.And.Science.Of.Trading.part09.rar.html
https://rapidgator.net/file/896d2db7408dad44ec4cb9d491618e26/1jg4w.Adam.Grimes..The.Art.And.Science.Of.Trading.part10.rar.html

nitroflare_com:
https://nitroflare.com/view/2B3490E74595E88/1jg4w.Adam.Grimes..The.Art.And.Science.Of.Trading.part01.rar
https://nitroflare.com/view/7EE9B6C6646B043/1jg4w.Adam.Grimes..The.Art.And.Science.Of.Trading.part02.rar
https://nitroflare.com/view/330458180A7343F/1jg4w.Adam.Grimes..The.Art.And.Science.Of.Trading.part03.rar
https://nitroflare.com/view/7AB026C1C24B876/1jg4w.Adam.Grimes..The.Art.And.Science.Of.Trading.part04.rar
https://nitroflare.com/view/78B196FB004134F/1jg4w.Adam.Grimes..The.Art.And.Science.Of.Trading.part05.rar
https://nitroflare.com/view/BDF62607600F5D7/1jg4w.Adam.Grimes..The.Art.And.Science.Of.Trading.part06.rar
https://nitroflare.com/view/AB9C26A253E7F65/1jg4w.Adam.Grimes..The.Art.And.Science.Of.Trading.part07.rar
https://nitroflare.com/view/925E5983C45B271/1jg4w.Adam.Grimes..The.Art.And.Science.Of.Trading.part08.rar
https://nitroflare.com/view/BC6F7F4B8B74B83/1jg4w.Adam.Grimes..The.Art.And.Science.Of.Trading.part09.rar
https://nitroflare.com/view/CB1DFD9EF0820D8/1jg4w.Adam.Grimes..The.Art.And.Science.Of.Trading.part10.rar

uploadgig_com:
http://uploadgig.com/file/download/fd05fb0d4bd4D960/1jg4w.Adam.Grimes..The.Art.And.Science.Of.Trading.part01.rar
http://uploadgig.com/file/download/aaF7dbE1F3e35018/1jg4w.Adam.Grimes..The.Art.And.Science.Of.Trading.part02.rar
http://uploadgig.com/file/download/a1c4F42fFd88Af84/1jg4w.Adam.Grimes..The.Art.And.Science.Of.Trading.part03.rar
http://uploadgig.com/file/download/8e37Ad05c53771bb/1jg4w.Adam.Grimes..The.Art.And.Science.Of.Trading.part04.rar
http://uploadgig.com/file/download/73F0b50F003E5977/1jg4w.Adam.Grimes..The.Art.And.Science.Of.Trading.part05.rar
http://uploadgig.com/file/download/88b0b00A07a4fba3/1jg4w.Adam.Grimes..The.Art.And.Science.Of.Trading.part06.rar
http://uploadgig.com/file/download/a8dff761add2C70d/1jg4w.Adam.Grimes..The.Art.And.Science.Of.Trading.part07.rar
http://uploadgig.com/file/download/C4473e78Fdfca4a7/1jg4w.Adam.Grimes..The.Art.And.Science.Of.Trading.part08.rar
http://uploadgig.com/file/download/Fe05056B1fd23e30/1jg4w.Adam.Grimes..The.Art.And.Science.Of.Trading.part09.rar
http://uploadgig.com/file/download/Ed834a9e2326300f/1jg4w.Adam.Grimes..The.Art.And.Science.Of.Trading.part10.rar


Links are Interchangeable - No Password - Single Extraction
Direct Download

Tags: Grimes, Science, Trading

Adam Grimes - The Art And Science Of Trading . from rapidshare mediafire megaupload hotfile, Adam Grimes - The Art And Science Of Trading . via torrent or emule, full free Adam Grimes - The Art And Science Of Trading ., Adam Grimes - The Art And Science Of Trading . rar zip password or anything related.

Comments:

Name:*
E-Mail:*
Add Comments:
Enter Code: *