TTC Video - The Learning Brain .

Download Now

[/center]
[center]TTC Video - The Learning Brain
WEBRip | MP4/AVC, ~1251 kb/s | 854x480 | 12:32:35 | English: AAC, 192 kb/s (2 ch) | + PDF Guide | 7.65 GB
Genre: eLearning Video / Neurobiology, Brain, Self Improvement

One of the most complicated and advanced computers on Earth can't be purchased in any store. This astonishing device, responsible for storing and retrieving vast quantities of information that can be accessed at a moment's notice, is the human brain. How does such a dynamic and powerful machine make memories, learn a language, and remember how to drive a car? What habits can we adopt to learn more effectively throughout our lives? And how do factors like traumatic injuries, stress, and mood affect our grey matter? The answers to these questions are merely the tip of the iceberg in The Learning Brain.

These 24 half-hour lectures offer in-depth and surprising lessons on how the brain learns and remembers. You begin your journey by focusing on which parts of the brain are responsible for different kinds of memory, from long-term memory for personal experiences and memorized facts to short-term memory, and how these memory systems work on a psychological and biological level. You'll acquire a new understanding of how amnesia, aging, and sleep affect your brain. You'll also discover better ways to absorb and retain all kinds of information in all stages of life. This course is chock full of valuable information whether you're learning a new language at 60 or discovering calculus at 16. If you need better study habits, struggle with learning a new skill, or just worry about memories fading with age, The Learning Brain provides illuminating insights and advice.

Professor Thad A. Polk, Ph.D.
TTC / TGC Course No. 1569

Lessons:

[/center]

General
Complete name : 3. Conscious, Explicit Learning.mp4
Format : MPEG-4
Format profile : Base Media
Codec ID : isom (isom/iso2/avc1/mp41)
File size : 299 MiB
Duration : 28 min 47 s
Overall bit rate : 1 449 kb/s

Video
ID : 2
Format : AVC
Format/Info : Advanced Video Codec
Format profile : [email protected]
Format settings : 3 Ref Frames
Format settings, CABAC : No
Format settings, RefFrames : 3 frames
Codec ID : avc1
Codec ID/Info : Advanced Video Coding
Duration : 28 min 47 s
Bit rate : 1 251 kb/s
Width : 854 pixels
Height : 480 pixels
Display aspect ratio : 16:9
Original display aspect ratio : 16:9
Frame rate mode : Constant
Frame rate : 29.970 (30000/1001) FPS
Color space : YUV
Chroma subsampling : 4:2:0
Bit depth : 8 bits
Scan type : Progressive
Bits/(Pixel*Frame) : 0.102
Stream size : 258 MiB (86%)

Audio
ID : 1
Format : AAC
Format/Info : Advanced Audio Codec
Format profile : LC
Codec ID : mp4a-40-2
Duration : 28 min 47 s
Duration_LastFrame : -6 ms
Bit rate mode : Constant
Bit rate : 192 kb/s
Channel(s) : 2 channels
Channel positions : Front: L R
Sampling rate : 44.1 kHz
Frame rate : 43.066 FPS (1024 SPF)
Compression mode : Lossy
Stream size : 39.5 MiB (13%)
Default : Yes
Alternate group : 1

[center]Screenshots


[/center]
[center]

[/center]

[center]Download link:

rapidgator_net:
https://rapidgator.net/file/e6e51016616d3d4d2da4f9c342ba04e5/fq26g.TTC.Video..The.Learning.Brain.part01.rar.html
https://rapidgator.net/file/98e7224eee49a9a6b414969de1f9d3ff/fq26g.TTC.Video..The.Learning.Brain.part02.rar.html
https://rapidgator.net/file/317e2efd92b97e1d9409730302f07207/fq26g.TTC.Video..The.Learning.Brain.part03.rar.html
https://rapidgator.net/file/e68854277e526055633ed712a7140262/fq26g.TTC.Video..The.Learning.Brain.part04.rar.html
https://rapidgator.net/file/9c7ece250c343c6e06e30abfff486a2b/fq26g.TTC.Video..The.Learning.Brain.part05.rar.html
https://rapidgator.net/file/6267d4dc520822734e186bd9379805bd/fq26g.TTC.Video..The.Learning.Brain.part06.rar.html
https://rapidgator.net/file/39ec09b29904f05ad3a6790ca492d8b8/fq26g.TTC.Video..The.Learning.Brain.part07.rar.html
https://rapidgator.net/file/581958dcb757f2e0572b9fb1f402d80b/fq26g.TTC.Video..The.Learning.Brain.part08.rar.html
https://rapidgator.net/file/41e34e5ee0761e4ba01fa499a9835220/fq26g.TTC.Video..The.Learning.Brain.part09.rar.html

nitroflare_com:
https://nitroflare.com/view/09BBE14ABCEA236/fq26g.TTC.Video..The.Learning.Brain.part01.rar
https://nitroflare.com/view/1BF2AE790A7344B/fq26g.TTC.Video..The.Learning.Brain.part02.rar
https://nitroflare.com/view/D9A9AC5A7D96487/fq26g.TTC.Video..The.Learning.Brain.part03.rar
https://nitroflare.com/view/8D99E3918955B55/fq26g.TTC.Video..The.Learning.Brain.part04.rar
https://nitroflare.com/view/A44BC92F204D5D2/fq26g.TTC.Video..The.Learning.Brain.part05.rar
https://nitroflare.com/view/3496DC62AEC483C/fq26g.TTC.Video..The.Learning.Brain.part06.rar
https://nitroflare.com/view/D61F1C58A57B8B9/fq26g.TTC.Video..The.Learning.Brain.part07.rar
https://nitroflare.com/view/8C7B6D51D75FD5F/fq26g.TTC.Video..The.Learning.Brain.part08.rar
https://nitroflare.com/view/BBA1A6F94B5E4F5/fq26g.TTC.Video..The.Learning.Brain.part09.rar

uploadgig_com:
http://uploadgig.com/file/download/3d3614b2d9345f59/fq26g.TTC.Video..The.Learning.Brain.part01.rar
http://uploadgig.com/file/download/620f5A412822d384/fq26g.TTC.Video..The.Learning.Brain.part02.rar
http://uploadgig.com/file/download/1C3c76a9f54740eA/fq26g.TTC.Video..The.Learning.Brain.part03.rar
http://uploadgig.com/file/download/554f4C440aafF6f6/fq26g.TTC.Video..The.Learning.Brain.part04.rar
http://uploadgig.com/file/download/ab7b7a87520e6b6C/fq26g.TTC.Video..The.Learning.Brain.part05.rar
http://uploadgig.com/file/download/c4eb042112459323/fq26g.TTC.Video..The.Learning.Brain.part06.rar
http://uploadgig.com/file/download/2142Fbda3deb1f59/fq26g.TTC.Video..The.Learning.Brain.part07.rar
http://uploadgig.com/file/download/3C373804f8bD0291/fq26g.TTC.Video..The.Learning.Brain.part08.rar
http://uploadgig.com/file/download/c9D8487C6D784990/fq26g.TTC.Video..The.Learning.Brain.part09.rar


Links are Interchangeable - No Password - Single Extraction
Direct Download

Tags: Learning

TTC Video - The Learning Brain . from rapidshare mediafire megaupload hotfile, TTC Video - The Learning Brain . via torrent or emule, full free TTC Video - The Learning Brain ., TTC Video - The Learning Brain . rar zip password or anything related.

Comments:

Name:*
E-Mail:*
Add Comments:
Enter Code: *