Guitar Sessions - Led Zeppelin Acoustic DVD .

Download Now

Guitar Sessions - Led Zeppelin Acoustic DVD .

Guitar Sessions - Led Zeppelin Acoustic DVD
WEBRip | English | MP4 + PDF Tabs | 856 x 480 | AVC ~1530 kbps | 29.970 fps
AAC 125 Kbps 44.1 KHz | 2 channels | 04:17:35 | 3.13 GB
Genre: eLearning Video / Guitar lesson

The Guitar Sessions series features songbooks centered around detailed instructional video lessons that teach how to play rock 'n' roll's greatest songs, shown step-by-step by knowledgeable guitar-slinging hosts who then perform the music in its entirety. With Led Zeppelin: Acoustic Sessions, you'll learn riff by riff how to play all of Jimmy Page's guitar parts in Led Zeppelin's most classic acoustic songs, including Jimmy's famous alternate tunings and even some of the must-know mandolin and electric guitar parts.

In addition to the DVD lessons, this book also includes detailed written lessons and TAB examples that match the DVD; our exclusive TNT 2 software that allows you to practice to sound-alike recordings of every song, alter the mixes, loop sections, and change keys and tempos; play-along MP3s, for practice away from the computer; and full PDF transcriptions of every song in TAB and music notation.

Includes:

1. Babe I'm Gonna Leave You
2. The Battle Of Evermore
3. Black Mountain Side
4. Bron-Yr-Aur
5. Going To California
6. Hey, Hey, What Can I Do
7. Over The Hills And Far Away
8. Ramble On
9. Stairway To Heaven
10. That's The Way

General
Complete name : 03. Take 2 - Intro.mp4
Format : MPEG-4
Format profile : Base Media
Codec ID : isom (isom)
File size : 19.8 MiB
Duration : 1 min 40 s
Overall bit rate mode : Variable
Overall bit rate : 1 657 kb/s
Encoded date : UTC 2015-11-06 19:41:12
Tagged date : UTC 2015-11-06 19:41:12

Video
ID : 1
Format : MPEG-4 Visual
Format profile : [email protected]
Format settings, BVOP : No
Format settings, QPel : No
Format settings, GMC : No warppoints
Format settings, Matrix : Default (H.263)
Codec ID : mp4v-20
Duration : 1 min 40 s
Bit rate mode : Variable
Bit rate : 1 530 kb/s
Maximum bit rate : 4 639 kb/s
Width : 856 pixels
Height : 480 pixels
Display aspect ratio : 16:9
Frame rate mode : Constant
Frame rate : 29.970 (30000/1001) FPS
Color space : YUV
Chroma subsampling : 4:2:0
Bit depth : 8 bits
Scan type : Progressive
Compression mode : Lossy
Bits/(Pixel*Frame) : 0.124
Stream size : 18.3 MiB (92%)
Writing library : Lavc53.8.0
Encoded date : UTC 2015-11-06 19:41:12
Tagged date : UTC 2015-11-06 19:41:13

Audio
ID : 2
Format : AAC
Format/Info : Advanced Audio Codec
Format profile : LC
Codec ID : mp4a-40-2
Duration : 1 min 40 s
Bit rate mode : Variable
Bit rate : 125 kb/s
Maximum bit rate : 220 kb/s
Channel(s) : 2 channels
Channel positions : Front: L R
Sampling rate : 44.1 kHz
Frame rate : 43.066 FPS (1024 SPF)
Compression mode : Lossy
Stream size : 1.50 MiB (8%)
Encoded date : UTC 2015-11-06 19:41:12
Tagged date : UTC 2015-11-06 19:41:13

Screenshots


Guitar Sessions - Led Zeppelin Acoustic DVD .

Guitar Sessions - Led Zeppelin Acoustic DVD .

Guitar Sessions - Led Zeppelin Acoustic DVD .


Download link:

rapidgator_net:
https://rapidgator.net/file/b4fceeb6bef8297471d37e8388d5cafb/lcd8l.Guitar.Sessions..Led.Zeppelin.Acoustic.DVD.part01.rar.html
https://rapidgator.net/file/82a15c8f5b0579a919a0fc86c191ab8d/lcd8l.Guitar.Sessions..Led.Zeppelin.Acoustic.DVD.part02.rar.html
https://rapidgator.net/file/c498f6f17b72d2f727e5f55cc0fc7e6d/lcd8l.Guitar.Sessions..Led.Zeppelin.Acoustic.DVD.part03.rar.html
https://rapidgator.net/file/d4b8c891d01e0235dd3d7c805722b49a/lcd8l.Guitar.Sessions..Led.Zeppelin.Acoustic.DVD.part04.rar.html
https://rapidgator.net/file/870d0cd02f19caf134b3d083c5098e68/lcd8l.Guitar.Sessions..Led.Zeppelin.Acoustic.DVD.part05.rar.html
https://rapidgator.net/file/98f0f9f0749ee340ef23c28fbdb93c6e/lcd8l.Guitar.Sessions..Led.Zeppelin.Acoustic.DVD.part06.rar.html
https://rapidgator.net/file/6ec1757e00dc7841c095e870fe63074d/lcd8l.Guitar.Sessions..Led.Zeppelin.Acoustic.DVD.part07.rar.html
https://rapidgator.net/file/82c42ba6a3e5378e3d2ea3ad8b5ee1f0/lcd8l.Guitar.Sessions..Led.Zeppelin.Acoustic.DVD.part08.rar.html
https://rapidgator.net/file/623e351f3420afb906d576665a1a9d9e/lcd8l.Guitar.Sessions..Led.Zeppelin.Acoustic.DVD.part09.rar.html

nitroflare_com:
http://nitroflare.com/view/750E701BEBBD20D/lcd8l.Guitar.Sessions..Led.Zeppelin.Acoustic.DVD.part01.rar
http://nitroflare.com/view/260AB00FEDAE972/lcd8l.Guitar.Sessions..Led.Zeppelin.Acoustic.DVD.part02.rar
http://nitroflare.com/view/3CC9B1D91D684A1/lcd8l.Guitar.Sessions..Led.Zeppelin.Acoustic.DVD.part03.rar
http://nitroflare.com/view/755CEB581FCB3E0/lcd8l.Guitar.Sessions..Led.Zeppelin.Acoustic.DVD.part04.rar
http://nitroflare.com/view/713145014DF3DCD/lcd8l.Guitar.Sessions..Led.Zeppelin.Acoustic.DVD.part05.rar
http://nitroflare.com/view/D3EAE09D58E20CC/lcd8l.Guitar.Sessions..Led.Zeppelin.Acoustic.DVD.part06.rar
http://nitroflare.com/view/4ED047A523E684E/lcd8l.Guitar.Sessions..Led.Zeppelin.Acoustic.DVD.part07.rar
http://nitroflare.com/view/FF1D78BB8D49E91/lcd8l.Guitar.Sessions..Led.Zeppelin.Acoustic.DVD.part08.rar
http://nitroflare.com/view/61843EAE7142B98/lcd8l.Guitar.Sessions..Led.Zeppelin.Acoustic.DVD.part09.rar

uploadgig_com:
https://uploadgig.com/file/download/712dA8f3Fb8122a6/lcd8l.Guitar.Sessions..Led.Zeppelin.Acoustic.DVD.part01.rar
https://uploadgig.com/file/download/7e381b9544333E43/lcd8l.Guitar.Sessions..Led.Zeppelin.Acoustic.DVD.part02.rar
https://uploadgig.com/file/download/ad93c0792590Dd8f/lcd8l.Guitar.Sessions..Led.Zeppelin.Acoustic.DVD.part03.rar
https://uploadgig.com/file/download/514f0bFc5dC9891e/lcd8l.Guitar.Sessions..Led.Zeppelin.Acoustic.DVD.part04.rar
https://uploadgig.com/file/download/1c358f407B72d826/lcd8l.Guitar.Sessions..Led.Zeppelin.Acoustic.DVD.part05.rar
https://uploadgig.com/file/download/b73d8a593e7b5545/lcd8l.Guitar.Sessions..Led.Zeppelin.Acoustic.DVD.part06.rar
https://uploadgig.com/file/download/7aC24F76fed08a94/lcd8l.Guitar.Sessions..Led.Zeppelin.Acoustic.DVD.part07.rar
https://uploadgig.com/file/download/923b3537efF63E15/lcd8l.Guitar.Sessions..Led.Zeppelin.Acoustic.DVD.part08.rar
https://uploadgig.com/file/download/Dd62918dAb6c5C6e/lcd8l.Guitar.Sessions..Led.Zeppelin.Acoustic.DVD.part09.rar


Links are Interchangeable - No Password - Single Extraction
Direct Download

Tags: Guitar, Sessions, Zeppelin, Acoustic

Guitar Sessions - Led Zeppelin Acoustic DVD . from rapidshare mediafire megaupload hotfile, Guitar Sessions - Led Zeppelin Acoustic DVD . via torrent or emule, full free Guitar Sessions - Led Zeppelin Acoustic DVD ., Guitar Sessions - Led Zeppelin Acoustic DVD . rar zip password or anything related.

Comments:

Name:*
E-Mail:*
Add Comments:
Enter Code: *