Coursera - MRI Fundamentals .

Download Now

Coursera - MRI Fundamentals .

Coursera - MRI Fundamentals
Korea Advanced Institute of Science and Technology

WEBRip | English | MP4 | 960 x 540 | AVC ~81.6 kbps | 29.970 fps
AAC | 128 Kbps | 44.1 KHz | 2 channels | 06:39:48 | 608 MB
Genre: eLearning Video / Medicine, Engineering, Health

Develop expertise in basic magnetic resonance imaging (MRI) physics and principles and gain knowledge of many different data acquisition strategies in MRI

In this course learners will develop expertise in basic magnetic resonance imaging (MRI) physics and principles and gain knowledge of many different data acquisition strategies in MRI. In particular, learners will get to know what is magnetic resonance phenomenon, how magnetic resonance signals are generated, how an image can be formulated using MRI, how soft tissue contrast can change with imaging parameters. Also introduced will be MR imaging sequences of spin echo, gradient echo, fast spin echo, echo planar imaging, inversion recovery, etc.

General
Complete name : 04_4-4_Frequency_Encoding.mp4
Format : MPEG-4
Format profile : Base Media
Codec ID : isom
File size : 23.2 MiB
Duration : 14mn 52s
Overall bit rate : 218 Kbps
Writing application : Lavf55.19.104

Video
ID : 1
Format : AVC
Format/Info : Advanced Video Codec
Format profile : [email protected]
Format settings, CABAC : Yes
Format settings, ReFrames : 4 frames
Codec ID : avc1
Codec ID/Info : Advanced Video Coding
Duration : 14mn 52s
Bit rate : 81.6 Kbps
Width : 960 pixels
Height : 540 pixels
Display aspect ratio : 16:9
Frame rate mode : Constant
Frame rate : 29.970 fps
Color space : YUV
Chroma subsampling : 4:2:0
Bit depth : 8 bits
Scan type : Progressive
Bits/(Pixel*Frame) : 0.005
Stream size : 8.69 MiB (37%)
Writing library : x264 core 138
Encoding settings : cabac=1 / ref=3 / deblock=1:0:0 / analyse=0x1:0x111 / me=hex / subme=7 / psy=1 / psy_rd=1.00:0.00 / mixed_ref=1 / me_range=16 / chroma_me=1 / trellis=1 / 8x8dct=0 / cqm=0 / deadzone=21,11 / fast_pskip=1 / chroma_qp_offset=-2 / threads=12 / lookahead_threads=2 / sliced_threads=0 / nr=0 / decimate=1 / interlaced=0 / bluray_compat=0 / constrained_intra=0 / bframes=3 / b_pyramid=2 / b_adapt=1 / b_bias=0 / direct=1 / weightb=1 / open_gop=0 / weightp=2 / keyint=250 / keyint_min=25 / scenecut=40 / intra_refresh=0 / rc_lookahead=40 / rc=crf / mbtree=1 / crf=28.0 / qcomp=0.60 / qpmin=0 / qpmax=69 / qpstep=4 / ip_ratio=1.40 / aq=1:1.00
Language : English

Audio
ID : 2
Format : AAC
Format/Info : Advanced Audio Codec
Format profile : LC
Codec ID : 40
Duration : 14mn 52s
Bit rate mode : Constant
Bit rate : 128 Kbps
Channel(s) : 2 channels
Channel positions : Front: L R
Sampling rate : 44.1 KHz
Compression mode : Lossy
Stream size : 13.6 MiB (59%)
Language : English

Screenshots


Coursera - MRI Fundamentals .

Coursera - MRI Fundamentals .

Coursera - MRI Fundamentals .


Download link:

rapidgator_net:
https://rapidgator.net/file/4e7eb2f806cd7d9ddee67b85f71bba71/jwiwv.Coursera..MRI.Fundamentals.part1.rar.html
https://rapidgator.net/file/98dbd514ec1ae630c07a9092ac2a7f12/jwiwv.Coursera..MRI.Fundamentals.part2.rar.html
https://rapidgator.net/file/00c674577487f3420c209546723a91a4/jwiwv.Coursera..MRI.Fundamentals.part3.rar.html
https://rapidgator.net/file/1c2c1f1cc2920f8466c4416c0cd29be4/jwiwv.Coursera..MRI.Fundamentals.part4.rar.html
https://rapidgator.net/file/1910da3351b304cdf3e46d7a9c40f2d6/jwiwv.Coursera..MRI.Fundamentals.part5.rar.html
https://rapidgator.net/file/6a3ee50b8860187df02697f097b940a1/jwiwv.Coursera..MRI.Fundamentals.part6.rar.html
https://rapidgator.net/file/8e1fae7129b2d4541ba16b2745edc4ba/jwiwv.Coursera..MRI.Fundamentals.part7.rar.html

nitroflare_com:
http://nitroflare.com/view/B1D47F02CB1DCF6/jwiwv.Coursera..MRI.Fundamentals.part1.rar
http://nitroflare.com/view/0FD0280B291DB92/jwiwv.Coursera..MRI.Fundamentals.part2.rar
http://nitroflare.com/view/9A05DA7257FA0C1/jwiwv.Coursera..MRI.Fundamentals.part3.rar
http://nitroflare.com/view/59BB98D90E86287/jwiwv.Coursera..MRI.Fundamentals.part4.rar
http://nitroflare.com/view/7A09DF8A5CEA247/jwiwv.Coursera..MRI.Fundamentals.part5.rar
http://nitroflare.com/view/9A3837B51FFC6F5/jwiwv.Coursera..MRI.Fundamentals.part6.rar
http://nitroflare.com/view/CF72774413D6534/jwiwv.Coursera..MRI.Fundamentals.part7.rar

uploadgig_com:
https://uploadgig.com/file/download/ab19739742283596/jwiwv.Coursera..MRI.Fundamentals.part1.rar
https://uploadgig.com/file/download/20Feeac35Dd1a2Ed/jwiwv.Coursera..MRI.Fundamentals.part2.rar
https://uploadgig.com/file/download/72d8c13b15Aa07C5/jwiwv.Coursera..MRI.Fundamentals.part3.rar
https://uploadgig.com/file/download/6adE3Dfc365F0ed0/jwiwv.Coursera..MRI.Fundamentals.part4.rar
https://uploadgig.com/file/download/5204ea69796cC32b/jwiwv.Coursera..MRI.Fundamentals.part5.rar
https://uploadgig.com/file/download/6c44dD84f087D3D0/jwiwv.Coursera..MRI.Fundamentals.part6.rar
https://uploadgig.com/file/download/2dA04ba698d1b3Dd/jwiwv.Coursera..MRI.Fundamentals.part7.rar


Links are Interchangeable - No Password - Single Extraction
Direct Download

Tags: Coursera, Fundamentals

Coursera - MRI Fundamentals . from rapidshare mediafire megaupload hotfile, Coursera - MRI Fundamentals . via torrent or emule, full free Coursera - MRI Fundamentals ., Coursera - MRI Fundamentals . rar zip password or anything related.

Comments:

Name:*
E-Mail:*
Add Comments:
Enter Code: *