Buchla 101 The 200e Series Modules .

Download Now

Buchla 101 The 200e Series Modules .

Buchla 101: The 200e Series Modules
WEBRip | English | MP4 | 1280 x 720 | AVC ~613 kbps | 30 fps
AAC 96 Kbps 44.1 KHz | 2 channels | 1h 13mn | 309 MB
Genre: eLearning Video / Sound Processing, Music Production

The Buchla 200e electronic music modules are world-renowned. This groundbreaking course is dedicated to teach the Buchla "way" and how these unique hybrid, analog/digital modules work. Learn Buchla with Todd Barton!

Content:

Section 1: Introduction
01. Introduction (01:18)

Section 2: 261e Complex Waveform Generator
02. 261e Complex Waveform Generator (03:05)
03. 261e Principal Oscillator (02:00)
04. 261e Modulation Oscillator (02:33)
05. 261e Modulation Section (02:53)

Section 3: 292e Quad Dynamics Manager
06. 292e Quad Dynamics Manager (01:51)
07. 292e In Action (02:23)

Section 4: 281e Quad Function Generator
08. 281e Quad Function Generator (01:50)
09. 281e In Action (01:49)
10. 281e Special Modes (02:30)
11. 292e & 281e Working Together (00:49)

Section 5: 206e Mixer/Preset Manager
12. 206e Mixer/Preset Manager 1m 56s
13. 206e Preset Manager Overview 2m 3s
14. 206e Saving a Preset 3m 29s

Section 6: 259e Twisted Waveform Generator
15. 259e Twisted Waveform Generator (02:36)
16. 259e Timbre Section (02:17)
17. 259e More Twisted Waveforms (02:22)

Section 7: 266e Source of Uncertainty
18. 266e Source of Uncertainty (02:51)
19. 266e In Action (02:12)

Section 8: 222e & 223e Input Port Overview
20. 222e & 223e Input Port Overview (03:09)
21. 222e & 223e In Action (05:14)

Section 9: 256e Quad Voltage Processor
22. 256e Quad Voltage Processor (03:13)
23. Why Four? Thoughts (02:26)

Section 10: 251e Sequential Voltage Source
24. 251e Sequential Voltage Source (02:36)
25. 251e Basic Programming (04:36)

Section 11: 291e Triple Morphing Filter
26. 291e Triple Morphing Filter (02:20)
27. 291e In Action (02:57)

Section 12: Epilogue
28. Epilogue (02:49)

General
Complete name : 4. 261e Modulation Oscillator.mp4
Format : MPEG-4
Format profile : Base Media / Version 2
Codec ID : mp42 (mp42/isom/avc1)
File size : 13.1 MiB
Duration : 2 min 33 s
Overall bit rate : 716 kb/s
Encoded date : UTC 2016-11-07 14:50:38
Tagged date : UTC 2016-11-07 22:50:38
Writing application : Sorenson Squeeze
Comment : Encoded by

Video
ID : 2
Format : AVC
Format/Info : Advanced Video Codec
Format profile : [email protected]
Format settings : CABAC / 4 Ref Frames
Format settings, CABAC : Yes
Format settings, RefFrames : 4 frames
Codec ID : avc1
Codec ID/Info : Advanced Video Coding
Duration : 2 min 33 s
Bit rate : 613 kb/s
Width : 1 280 pixels
Height : 720 pixels
Display aspect ratio : 16:9
Frame rate mode : Constant
Frame rate : 30.000 FPS
Color space : YUV
Chroma subsampling : 4:2:0
Bit depth : 8 bits
Scan type : Progressive
Bits/(Pixel*Frame) : 0.022
Stream size : 11.2 MiB (86%)
Writing library : x264 core 129
Encoding settings : cabac=1 / ref=3 / deblock=1:0:0 / analyse=0x1:0x111 / me=hex / subme=7 / psy=1 / psy_rd=1.00:0.00 / mixed_ref=1 / me_range=16 / chroma_me=1 / trellis=1 / 8x8dct=0 / cqm=0 / deadzone=21,11 / fast_pskip=1 / chroma_qp_offset=-2 / threads=18 / lookahead_threads=3 / sliced_threads=0 / nr=0 / decimate=1 / interlaced=0 / bluray_compat=0 / constrained_intra=0 / bframes=3 / b_pyramid=2 / b_adapt=1 / b_bias=0 / direct=1 / weightb=1 / open_gop=0 / weightp=2 / keyint=300 / keyint_min=30 / scenecut=45 / intra_refresh=0 / rc_lookahead=40 / rc=crf / mbtree=1 / crf=23.0 / qcomp=0.60 / qpmin=0 / qpmax=69 / qpstep=4 / ip_ratio=1.40 / aq=1:1.00
Encoded date : UTC 2016-11-07 14:50:38
Tagged date : UTC 2016-11-07 14:50:38

Audio
ID : 1
Format : AAC
Format/Info : Advanced Audio Codec
Format profile : LC
Codec ID : mp4a-40-2
Duration : 2 min 32 s
Bit rate mode : Constant
Bit rate : 96.0 kb/s
Channel(s) : 2 channels
Channel positions : Front: L R
Sampling rate : 44.1 kHz
Frame rate : 43.066 FPS (1024 SPF)
Compression mode : Lossy
Stream size : 1.74 MiB (13%)
Encoded date : UTC 2016-11-07 14:50:38
Tagged date : UTC 2016-11-07 14:50:38

Other #1
ID : 3
Type : Scene description
Format : System Core
Codec ID : mp4s-02
Duration : 2 min 33 s
Encoded date : UTC 2016-11-07 14:50:38
Tagged date : UTC 2016-11-07 14:50:38

Other #2
ID : 4
Type : Object description
Format : System
Codec ID : mp4s-01
Duration : 2 min 33 s
Encoded date : UTC 2016-11-07 14:50:38
Tagged date : UTC 2016-11-07 14:50:38

Screenshots


Buchla 101 The 200e Series Modules .

Buchla 101 The 200e Series Modules .

Buchla 101 The 200e Series Modules .


Download link:



Links are Interchangeable - No Password - Single Extraction
Direct Download

Tags: Buchla, Series, Modules

Buchla 101 The 200e Series Modules . from rapidshare mediafire megaupload hotfile, Buchla 101 The 200e Series Modules . via torrent or emule, full free Buchla 101 The 200e Series Modules ., Buchla 101 The 200e Series Modules . rar zip password or anything related.

Comments:

Name:*
E-Mail:*
Add Comments:
Enter Code: *