Woody Mann - The Guitar Of Blind Blake .

Download Now

Woody Mann - The Guitar Of Blind Blake .

Woody Mann - The Guitar Of Blind Blake
DVDRip | English | AVI + PDF Guide | 624 x 464 | XviD ~1051 kbps | 29.970 fps
MP3 128 Kbps 48.0 KHz | 2 channels | 01:34:00 | 799 MB
Genre: eLearning Video / Guitar lesson, Singing, Voice

Blind Blake was the premier ragtime blues guitarist of the 1920s. He extended the alternating bass style, that was popular at the turn of the century, to encompass the dance trends and more complex blues ideas that were emerging from the jazz bands of New Orleans and Chicago.

His playing featured unique right hand thumb rolls that evoked the feel of the Charleston dance-step. Rev. Gary Davis greatly admired Blake's playing and used to remark that Blake had a "sportin' right-hand". Blind Blake influenced generations of country blues guitarists and was never equaled.
In this unique dvd lesson, Woody Mann explores the ideas, techniques and styles of this legendary guitarist. A 48 page tab/music booklet is included as well as BONUS audio tracks of all the original Blind Blake recordings of the
tunes taught.

Includes:

Diddie Wa Diddie
Chump Man Blues
Police Dog Blues
That Will Never Happen No More
Black Dog Blues
Blind Arthur's Breakdown

General
Complete name : The Guitar of Blind Blake.avi
Format : AVI
Format/Info : Audio Video Interleave
File size : 798 MiB
Duration : 1 h 33 min
Overall bit rate : 1 190 kb/s
Writing application : transcode-1.1.7

Video
ID : 0
Format : MPEG-4 Visual
Format profile : Advanced [email protected]
Format settings : BVOP1
Format settings, BVOP : 1
Format settings, QPel : No
Format settings, GMC : No warppoints
Format settings, Matrix : Default (H.263)
Codec ID : XVID
Codec ID/Hint : XviD
Duration : 1 h 33 min
Bit rate : 1 051 kb/s
Width : 624 pixels
Height : 464 pixels
Display aspect ratio : 4:3
Frame rate : 29.970 (30000/1001) FPS
Color space : YUV
Chroma subsampling : 4:2:0
Bit depth : 8 bits
Scan type : Progressive
Compression mode : Lossy
Bits/(Pixel*Frame) : 0.121
Stream size : 704 MiB (88%)
Writing library : XviD 64

Audio
ID : 1
Format : MPEG Audio
Format version : Version 1
Format profile : Layer 3
Format settings : Joint stereo / MS Stereo
Codec ID : 55
Codec ID/Hint : MP3
Duration : 1 h 33 min
Bit rate mode : Constant
Bit rate : 128 kb/s
Channel(s) : 2 channels
Sampling rate : 48.0 kHz
Compression mode : Lossy
Stream size : 85.8 MiB (11%)
Alignment : Split accross interleaves
Interleave, duration : 33 ms (1.00 video frame)
Writing library : LAM

Screenshots


Woody Mann - The Guitar Of Blind Blake .

Woody Mann - The Guitar Of Blind Blake .

Woody Mann - The Guitar Of Blind Blake .


Download link:

uploadgig_com:
https://uploadgig.com/file/download/ab84d457E0e1178a/wfpkl.Woody.Mann..The.Guitar.Of.Blind.Blake.part01.rar
https://uploadgig.com/file/download/7ff4D1A23edf5908/wfpkl.Woody.Mann..The.Guitar.Of.Blind.Blake.part02.rar
https://uploadgig.com/file/download/95a1Aa683833dc29/wfpkl.Woody.Mann..The.Guitar.Of.Blind.Blake.part03.rar
https://uploadgig.com/file/download/C5e51Bd91d94fc04/wfpkl.Woody.Mann..The.Guitar.Of.Blind.Blake.part04.rar
https://uploadgig.com/file/download/8f2eE4f27bA1ddf8/wfpkl.Woody.Mann..The.Guitar.Of.Blind.Blake.part05.rar
https://uploadgig.com/file/download/6402ead37457D0A5/wfpkl.Woody.Mann..The.Guitar.Of.Blind.Blake.part06.rar
https://uploadgig.com/file/download/Ef9dF908981cb0De/wfpkl.Woody.Mann..The.Guitar.Of.Blind.Blake.part07.rar
https://uploadgig.com/file/download/F4cde124a7f6e8E0/wfpkl.Woody.Mann..The.Guitar.Of.Blind.Blake.part08.rar

rapidgator_net:
https://rapidgator.net/file/65fb30f4921a424a603a0e460760ac44/wfpkl.Woody.Mann..The.Guitar.Of.Blind.Blake.part01.rar.html
https://rapidgator.net/file/9dcbc54489f3588aac6f78a7dfd6554c/wfpkl.Woody.Mann..The.Guitar.Of.Blind.Blake.part02.rar.html
https://rapidgator.net/file/a0a961778535f18cadc026b89e666c99/wfpkl.Woody.Mann..The.Guitar.Of.Blind.Blake.part03.rar.html
https://rapidgator.net/file/8dbcdc79439e6c53e0315d190cc1d3b0/wfpkl.Woody.Mann..The.Guitar.Of.Blind.Blake.part04.rar.html
https://rapidgator.net/file/db8421f870469536adc8ccb92602b04e/wfpkl.Woody.Mann..The.Guitar.Of.Blind.Blake.part05.rar.html
https://rapidgator.net/file/6df7e3e0f265857daa8fa816616dc703/wfpkl.Woody.Mann..The.Guitar.Of.Blind.Blake.part06.rar.html
https://rapidgator.net/file/3b1d13ac1d423324d1aea5d281af2037/wfpkl.Woody.Mann..The.Guitar.Of.Blind.Blake.part07.rar.html
https://rapidgator.net/file/c9c7220f2f8ac42c45b737a980b3d96f/wfpkl.Woody.Mann..The.Guitar.Of.Blind.Blake.part08.rar.html

nitroflare_com:
http://nitroflare.com/view/7326F1FDD9BA0F0/wfpkl.Woody.Mann..The.Guitar.Of.Blind.Blake.part01.rar
http://nitroflare.com/view/5F2CB8717E69838/wfpkl.Woody.Mann..The.Guitar.Of.Blind.Blake.part02.rar
http://nitroflare.com/view/1EA83620D9FBBFC/wfpkl.Woody.Mann..The.Guitar.Of.Blind.Blake.part03.rar
http://nitroflare.com/view/F1417F6867D397F/wfpkl.Woody.Mann..The.Guitar.Of.Blind.Blake.part04.rar
http://nitroflare.com/view/090C96AC045CA35/wfpkl.Woody.Mann..The.Guitar.Of.Blind.Blake.part05.rar
http://nitroflare.com/view/5FF8ED7B3B0A7DB/wfpkl.Woody.Mann..The.Guitar.Of.Blind.Blake.part06.rar
http://nitroflare.com/view/4B8DC3AE935471D/wfpkl.Woody.Mann..The.Guitar.Of.Blind.Blake.part07.rar
http://nitroflare.com/view/286F8C6E9872DC3/wfpkl.Woody.Mann..The.Guitar.Of.Blind.Blake.part08.rar


Links are Interchangeable - No Password - Single Extraction
Direct Download

Tags: Guitar

Woody Mann - The Guitar Of Blind Blake . from rapidshare mediafire megaupload hotfile, Woody Mann - The Guitar Of Blind Blake . via torrent or emule, full free Woody Mann - The Guitar Of Blind Blake ., Woody Mann - The Guitar Of Blind Blake . rar zip password or anything related.

Comments:

Name:*
E-Mail:*
Add Comments:
Enter Code: *