Qigong for Stress Relief with Francesco & Daisy Lee-Garripoli .

Download Now

Qigong for Stress Relief with Francesco & Daisy Lee-Garripoli .

Qigong for Stress Relief with Francesco & Daisy Lee-Garripoli
DVDRip | English | MP4 | 640 x 480 | MPEG-4 ~7738 kbps | 29 fps
AAC | 129 Kbps | 44.1 KHz | 2 channels | 00:36:05 | 1.75 GB
Genre: eLearning Video / Health

Release tension, soothe your mind and empower yourself with the centuries-old practice of Qigong (pronounced chee-gung ). Qigong for Stress Relief, with internationally acclaimed instructors Francesco Garripoli and Daisy Lee, offers you the best in energy first aid 10 easy-to-learn exercises to boost your natural resiliency to stress. With regular practice, you ll approach stressful situations with a sense of peace and calm. As a result, your immune system will be better able to prevent both the common cold and future diseases. With clear, detailed instruction, this 30-minute session of moving meditations will promote the free flow of Qi, your physical, mental and spiritual energy.

General
Complete name : Qigong for Stress Relief.mp4
Format : MPEG-4
Format profile : Base Media
Codec ID : isom (isom/iso2/mp41)
File size : 1.51 GiB
Duration : 27 min 24 s
Overall bit rate mode : Constant
Overall bit rate : 7 874 kb/s
Movie name : Qigong for Stress Relief
Album : QIGONG_STRESS_RELIEF
Writing application : Lavf54.63.104

Video
ID : 1
Format : MPEG-4 Visual
Format profile : [email protected]
Format settings, BVOP : No
Format settings, QPel : No
Format settings, GMC : No warppoints
Format settings, Matrix : Default (H.263)
Codec ID : mp4v-20
Duration : 27 min 24 s
Bit rate mode : Constant
Bit rate : 7 738 kb/s
Width : 640 pixels
Height : 480 pixels
Display aspect ratio : 4:3
Frame rate mode : Constant
Frame rate : 29.000 FPS
Color space : YUV
Chroma subsampling : 4:2:0
Bit depth : 8 bits
Scan type : Progressive
Compression mode : Lossy
Bits/(Pixel*Frame) : 0.869
Stream size : 1.48 GiB (98%)
Writing library : Lavc54.92.100

Audio
ID : 2
Format : AAC
Format/Info : Advanced Audio Codec
Format profile : LC
Codec ID : mp4a-40-2
Duration : 27 min 24 s
Duration_LastFrame : -16 ms
Bit rate mode : Constant
Bit rate : 129 kb/s
Channel(s) : 2 channels
Channel positions : Front: L R
Sampling rate : 44.1 kHz
Frame rate : 43.066 FPS (1024 SPF)
Compression mode : Lossy
Stream size : 25.3 MiB (2%)
Language : English
Default : Yes
Alternate group : 1

Menu

Screenshots


Qigong for Stress Relief with Francesco & Daisy Lee-Garripoli .

Qigong for Stress Relief with Francesco & Daisy Lee-Garripoli .

Qigong for Stress Relief with Francesco & Daisy Lee-Garripoli .


Download link:

uploadgig_com:
https://uploadgig.com/file/download/3b6b4819bf2aDD3E/em6tp.Qigong.for.Stress.Relief.with.Francesco..Daisy.LeeGarripoli.part1.rar
https://uploadgig.com/file/download/241e6A7826e7B1f5/em6tp.Qigong.for.Stress.Relief.with.Francesco..Daisy.LeeGarripoli.part2.rar
https://uploadgig.com/file/download/12a802Afb2614d99/em6tp.Qigong.for.Stress.Relief.with.Francesco..Daisy.LeeGarripoli.part3.rar
https://uploadgig.com/file/download/71dA0ecfbc4284A1/em6tp.Qigong.for.Stress.Relief.with.Francesco..Daisy.LeeGarripoli.part4.rar
https://uploadgig.com/file/download/4BFa41cDa7f35f6e/em6tp.Qigong.for.Stress.Relief.with.Francesco..Daisy.LeeGarripoli.part5.rar
https://uploadgig.com/file/download/80aB1bf77B914688/em6tp.Qigong.for.Stress.Relief.with.Francesco..Daisy.LeeGarripoli.part6.rar
https://uploadgig.com/file/download/5a57518cc20E0d9B/em6tp.Qigong.for.Stress.Relief.with.Francesco..Daisy.LeeGarripoli.part7.rar
https://uploadgig.com/file/download/8880Eb7411c65A68/em6tp.Qigong.for.Stress.Relief.with.Francesco..Daisy.LeeGarripoli.part8.rar

rapidgator_net:
https://rapidgator.net/file/330ee4461761dd211af260dbbdcafb1a/em6tp.Qigong.for.Stress.Relief.with.Francesco..Daisy.LeeGarripoli.part1.rar.html
https://rapidgator.net/file/c3a9b6f39f4e3033a6b4d4835687ea2c/em6tp.Qigong.for.Stress.Relief.with.Francesco..Daisy.LeeGarripoli.part2.rar.html
https://rapidgator.net/file/984495a68b7ac293f00b9e69248b9a98/em6tp.Qigong.for.Stress.Relief.with.Francesco..Daisy.LeeGarripoli.part3.rar.html
https://rapidgator.net/file/d4866c7cbf10c79fc04bdb04e88789a8/em6tp.Qigong.for.Stress.Relief.with.Francesco..Daisy.LeeGarripoli.part4.rar.html
https://rapidgator.net/file/bd13a076a541d30e196b052a09cbe72f/em6tp.Qigong.for.Stress.Relief.with.Francesco..Daisy.LeeGarripoli.part5.rar.html
https://rapidgator.net/file/8a4a8c3779229fe227bcdef55900119d/em6tp.Qigong.for.Stress.Relief.with.Francesco..Daisy.LeeGarripoli.part6.rar.html
https://rapidgator.net/file/2887c6c5d8c068717e00ec411dff9071/em6tp.Qigong.for.Stress.Relief.with.Francesco..Daisy.LeeGarripoli.part7.rar.html
https://rapidgator.net/file/390dbc70329734ebc76d285d4db16b1d/em6tp.Qigong.for.Stress.Relief.with.Francesco..Daisy.LeeGarripoli.part8.rar.html

nitroflare_com:
http://nitroflare.com/view/54740BB7934CF0D/em6tp.Qigong.for.Stress.Relief.with.Francesco..Daisy.LeeGarripoli.part1.rar
http://nitroflare.com/view/3B36BAE4D7EC2D0/em6tp.Qigong.for.Stress.Relief.with.Francesco..Daisy.LeeGarripoli.part2.rar
http://nitroflare.com/view/4843D90D09A7A54/em6tp.Qigong.for.Stress.Relief.with.Francesco..Daisy.LeeGarripoli.part3.rar
http://nitroflare.com/view/47ADFA47183B46E/em6tp.Qigong.for.Stress.Relief.with.Francesco..Daisy.LeeGarripoli.part4.rar
http://nitroflare.com/view/056C22EF45AD59E/em6tp.Qigong.for.Stress.Relief.with.Francesco..Daisy.LeeGarripoli.part5.rar
http://nitroflare.com/view/14019374E69AFF7/em6tp.Qigong.for.Stress.Relief.with.Francesco..Daisy.LeeGarripoli.part6.rar
http://nitroflare.com/view/10C89B0A7F3D4AF/em6tp.Qigong.for.Stress.Relief.with.Francesco..Daisy.LeeGarripoli.part7.rar
http://nitroflare.com/view/82EBF28A91547BC/em6tp.Qigong.for.Stress.Relief.with.Francesco..Daisy.LeeGarripoli.part8.rar


Links are Interchangeable - No Password - Single Extraction
Direct Download

Tags: Qigong, Stress, Relief, Francesco, Garripoli

Qigong for Stress Relief with Francesco & Daisy Lee-Garripoli . from rapidshare mediafire megaupload hotfile, Qigong for Stress Relief with Francesco & Daisy Lee-Garripoli . via torrent or emule, full free Qigong for Stress Relief with Francesco & Daisy Lee-Garripoli ., Qigong for Stress Relief with Francesco & Daisy Lee-Garripoli . rar zip password or anything related.

Comments:

Name:*
E-Mail:*
Add Comments:
Enter Code: *