Coursera - Introduction to Computational Finance and Financial Econometrics .

Download Now

Coursera - Introduction to Computational Finance and Financial Econometrics .

Coursera - Introduction to Computational Finance and Financial Econometrics
WEBRip | English | MP4 + Project files | 960 x 540 | AVC ~154 kbps | 30.919 fps
AAC | 128 Kbps | 44.1 KHz | 2 channels | Subs: English (.srt) | 25:23:27 | 3.86 GB
Genre: eLearning Video / Finance, Analysis, Mathematics, Statistics

Learn mathematical, programming and statistical tools used in the real world analysis and modeling of financial data. Apply these tools to model asset returns, measure risk, and construct optimized portfolios using the open source R programming language and WeiRuan-->WeiRuan Excel. Learn how to build probability models for asset returns, to apply statistical techniques to evaluate if asset returns are normally distributed, to use Monte Carlo simulation and bootstrapping techniques to evaluate statistical models, and to use optimization methods to construct efficient portfolios.

You'll do the R assignments for this course on DataCamp.com, an online interactive learning platform that offers free R tutorials through learning-by-doing. The platform provides you with hints and instant feedback on how to perform even better. Every week, new labs will be posted.

Course Syllabus
Topics covered include:

Computing asset returns
Univariate random variables and distributions
Characteristics of distributions, the normal distribution, linear function of random variables, quantiles of a distribution, Value-at-Risk
Bivariate distributions
Covariance, correlation, autocorrelation, linear combinations of random variables
Time Series concepts
Covariance stationarity, autocorrelations, MA(1) and AR(1) models
Matrix algebra
Descriptive statistics
histograms, sample means, variances, covariances and autocorrelations
The constant expected return model
Monte Carlo simulation, standard errors of estimates, confidence intervals, bootstrapping standard errors and confidence intervals, hypothesis testing , Maximum likelihood estimation, review of unconstrained optimization methods
Introduction to portfolio theory
Portfolio theory with matrix algebra
Review of constrained optimization methods, Markowitz algorithm, Markowitz Algorithm using the solver and matrix algebra
Statistical Analysis of Efficient Portfolios
Risk budgeting
Euler's theorem, asset contributions to volatility, beta as a measure of portfolio risk
The Single Index Model
Estimation using simple linear regression

General
Complete name : 21 - 7 - 10.12 Least Squares Estimation of Single Index Model Parameters (2106).mp4
Format : MPEG-4
Format profile : Base Media
Codec ID : isom
File size : 43.9 MiB
Duration : 21mn 6s
Overall bit rate : 291 Kbps
Writing application : Lavf53.29.100

Video
ID : 1
Format : AVC
Format/Info : Advanced Video Codec
Format profile : [email protected]
Format settings, CABAC : Yes
Format settings, ReFrames : 4 frames
Codec ID : avc1
Codec ID/Info : Advanced Video Coding
Duration : 21mn 5s
Bit rate : 154 Kbps
Width : 960 pixels
Height : 540 pixels
Display aspect ratio : 16:9
Frame rate mode : Variable
Frame rate : 30.919 fps
Minimum frame rate : 30.917 fps
Maximum frame rate : 371.000 fps
Color space : YUV
Chroma subsampling : 4:2:0
Bit depth : 8 bits
Scan type : Progressive
Bits/(Pixel*Frame) : 0.010
Stream size : 23.3 MiB (53%)
Writing library : x264 core 120 r2120 0c7dab9
Encoding settings : cabac=1 / ref=3 / deblock=1:0:0 / analyse=0x3:0x113 / me=hex / subme=7 / psy=1 / psy_rd=1.00:0.00 / mixed_ref=1 / me_range=16 / chroma_me=1 / trellis=1 / 8x8dct=1 / cqm=0 / deadzone=21,11 / fast_pskip=1 / chroma_qp_offset=-2 / threads=12 / sliced_threads=0 / nr=0 / decimate=1 / interlaced=0 / bluray_compat=0 / constrained_intra=0 / bframes=3 / b_pyramid=2 / b_adapt=1 / b_bias=0 / direct=1 / weightb=1 / open_gop=0 / weightp=2 / keyint=250 / keyint_min=25 / scenecut=40 / intra_refresh=0 / rc_lookahead=40 / rc=crf / mbtree=1 / crf=28.0 / qcomp=0.60 / qpmin=0 / qpmax=69 / qpstep=4 / ip_ratio=1.40 / aq=1:1.00

Audio
ID : 2
Format : AAC
Format/Info : Advanced Audio Codec
Format profile : LC
Codec ID : 40
Duration : 21mn 6s
Bit rate mode : Constant
Bit rate : 128 Kbps
Channel(s) : 2 channels
Channel positions : Front: L R
Sampling rate : 44.1 KHz
Compression mode : Lossy
Delay relative to video : -2ms
Stream size : 19.3 MiB (44%)

Screenshots


Coursera - Introduction to Computational Finance and Financial Econometrics .

Coursera - Introduction to Computational Finance and Financial Econometrics .

Coursera - Introduction to Computational Finance and Financial Econometrics .


Download link:

uploadgig_com:
https://uploadgig.com/file/download/d4fb4ad8fd37cA38/uk40g.Coursera..Introduction.to.Computational.Finance.and.Financial.Econometrics.part01.rar
https://uploadgig.com/file/download/5c33A6c856a5E54f/uk40g.Coursera..Introduction.to.Computational.Finance.and.Financial.Econometrics.part02.rar
https://uploadgig.com/file/download/2287c35357c74a78/uk40g.Coursera..Introduction.to.Computational.Finance.and.Financial.Econometrics.part03.rar
https://uploadgig.com/file/download/3D2e94De76c520dD/uk40g.Coursera..Introduction.to.Computational.Finance.and.Financial.Econometrics.part04.rar
https://uploadgig.com/file/download/175B51745259f868/uk40g.Coursera..Introduction.to.Computational.Finance.and.Financial.Econometrics.part05.rar
https://uploadgig.com/file/download/6Ce016637391364e/uk40g.Coursera..Introduction.to.Computational.Finance.and.Financial.Econometrics.part06.rar
https://uploadgig.com/file/download/470af140492Adaef/uk40g.Coursera..Introduction.to.Computational.Finance.and.Financial.Econometrics.part07.rar
https://uploadgig.com/file/download/df6b3F0449a223bF/uk40g.Coursera..Introduction.to.Computational.Finance.and.Financial.Econometrics.part08.rar

rapidgator_net:
https://rapidgator.net/file/6e48be809759798fd0a085c9e2c3ceba/uk40g.Coursera..Introduction.to.Computational.Finance.and.Financial.Econometrics.part01.rar.html
https://rapidgator.net/file/04e7d0e3cc2c19afb88c74d969be388a/uk40g.Coursera..Introduction.to.Computational.Finance.and.Financial.Econometrics.part02.rar.html
https://rapidgator.net/file/d22a1d49223c3e8bc2236988f48dd0d8/uk40g.Coursera..Introduction.to.Computational.Finance.and.Financial.Econometrics.part03.rar.html
https://rapidgator.net/file/9df7b52d1ec71658c0de452c051ce05d/uk40g.Coursera..Introduction.to.Computational.Finance.and.Financial.Econometrics.part04.rar.html
https://rapidgator.net/file/6ef8b271b74efeb177f405281af7efee/uk40g.Coursera..Introduction.to.Computational.Finance.and.Financial.Econometrics.part05.rar.html
https://rapidgator.net/file/2e636fde64e8f051310384f8e78e963e/uk40g.Coursera..Introduction.to.Computational.Finance.and.Financial.Econometrics.part06.rar.html
https://rapidgator.net/file/065616e641fc710d7ade0a50cd0e01cd/uk40g.Coursera..Introduction.to.Computational.Finance.and.Financial.Econometrics.part07.rar.html
https://rapidgator.net/file/71a8aa25a3d8c2b261872ed13915cf35/uk40g.Coursera..Introduction.to.Computational.Finance.and.Financial.Econometrics.part08.rar.html

nitroflare_com:
http://nitroflare.com/view/EC1E8C6E86D9F8C/uk40g.Coursera..Introduction.to.Computational.Finance.and.Financial.Econometrics.part01.rar
http://nitroflare.com/view/32EAE583716E3C9/uk40g.Coursera..Introduction.to.Computational.Finance.and.Financial.Econometrics.part02.rar
http://nitroflare.com/view/899957E194D888E/uk40g.Coursera..Introduction.to.Computational.Finance.and.Financial.Econometrics.part03.rar
http://nitroflare.com/view/27837E96E062F00/uk40g.Coursera..Introduction.to.Computational.Finance.and.Financial.Econometrics.part04.rar
http://nitroflare.com/view/0EF4ADB6062436E/uk40g.Coursera..Introduction.to.Computational.Finance.and.Financial.Econometrics.part05.rar
http://nitroflare.com/view/849C073F542E11D/uk40g.Coursera..Introduction.to.Computational.Finance.and.Financial.Econometrics.part06.rar
http://nitroflare.com/view/E8D02F18BEEB8A0/uk40g.Coursera..Introduction.to.Computational.Finance.and.Financial.Econometrics.part07.rar
http://nitroflare.com/view/32B886A3FADD90D/uk40g.Coursera..Introduction.to.Computational.Finance.and.Financial.Econometrics.part08.rar


Links are Interchangeable - No Password - Single Extraction
Direct Download

Tags: Coursera, Introduction, Computational, Finance, Financial, Econometrics

Coursera - Introduction to Computational Finance and Financial Econometrics . from rapidshare mediafire megaupload hotfile, Coursera - Introduction to Computational Finance and Financial Econometrics . via torrent or emule, full free Coursera - Introduction to Computational Finance and Financial Econometrics ., Coursera - Introduction to Computational Finance and Financial Econometrics . rar zip password or anything related.

Comments:

Name:*
E-Mail:*
Add Comments:
Enter Code: *