Coursera - Digital Signal Processing .

Download Now

Coursera - Digital Signal Processing .

Coursera - Digital Signal Processing (École Polytechnique Fédérale de Lausanne)
WEBRip | English | MP4 | 864 x 540 | AVC ~32.4 kbps | 29.970 fps
AAC | 128 Kbps | 44.1 KHz | 2 channels | Subs: English | ~15 hours | 1.36 GB
Genre: eLearning Video / Engineering

Digital Signal Processing is the branch of engineering that, in the space of just a few decades, has enabled unprecedented levels of interpersonal communication and of on-demand entertainment. By reworking the principles of electronics, telecommunication and computer science into a unifying paradigm, DSP is a the heart of the digital revolution that brought us CDs, DVDs, MP3 players, mobile phones and countless other devices.

The goal, for students of this course, will be to learn the fundamentals of Digital Signal Processing from the ground up. Starting from the basic definition of a discrete-time signal, we will work our way through Fourier analysis, filter design, sampling, interpolation and quantization to build a DSP toolset complete enough to analyze a practical communication system in detail. Hands-on examples and demonstration will be routinely used to close the gap between theory and practice.

To make the best of this class, it is recommended that you are proficient in basic calculus and linear algebra; several programming examples will be provided in the form of Python notebooks but you can use your favorite programming language to test the algorithms described in the course.

General
Complete name : 02_4.9_-_FFT-_history_and_algorithms_42-24.mp4
Format : MPEG-4
Format profile : Base Media
Codec ID : isom (isom/iso2/avc1/mp41)
File size : 51.3 MiB
Duration : 42 min 23 s
Overall bit rate : 169 kb/s
Writing application : Lavf55.19.104

Video
ID : 1
Format : AVC
Format/Info : Advanced Video Codec
Format profile : [email protected]
Format settings : CABAC / 4 Ref Frames
Format settings, CABAC : Yes
Format settings, RefFrames : 4 frames
Codec ID : avc1
Codec ID/Info : Advanced Video Coding
Duration : 42 min 23 s
Bit rate : 32.4 kb/s
Width : 864 pixels
Height : 540 pixels
Display aspect ratio : 16:10
Frame rate mode : Constant
Frame rate : 29.970 (29970/1000) FPS
Color space : YUV
Chroma subsampling : 4:2:0
Bit depth : 8 bits
Scan type : Progressive
Bits/(Pixel*Frame) : 0.002
Stream size : 9.84 MiB (19%)
Writing library : x264 core 138
Encoding settings : cabac=1 / ref=3 / deblock=1:0:0 / analyse=0x1:0x111 / me=hex / subme=7 / psy=1 / psy_rd=1.00:0.00 / mixed_ref=1 / me_range=16 / chroma_me=1 / trellis=1 / 8x8dct=0 / cqm=0 / deadzone=21,11 / fast_pskip=1 / chroma_qp_offset=-2 / threads=12 / lookahead_threads=2 / sliced_threads=0 / nr=0 / decimate=1 / interlaced=0 / bluray_compat=0 / constrained_intra=0 / bframes=3 / b_pyramid=2 / b_adapt=1 / b_bias=0 / direct=1 / weightb=1 / open_gop=0 / weightp=2 / keyint=250 / keyint_min=25 / scenecut=40 / intra_refresh=0 / rc_lookahead=40 / rc=crf / mbtree=1 / crf=28.0 / qcomp=0.60 / qpmin=0 / qpmax=69 / qpstep=4 / ip_ratio=1.40 / aq=1:1.00

Audio
ID : 2
Format : AAC
Format/Info : Advanced Audio Codec
Format profile : LC
Codec ID : mp4a-40-2
Duration : 42 min 23 s
Bit rate mode : Constant
Bit rate : 128 kb/s
Channel(s) : 2 channels
Channel positions : Front: L R
Sampling rate : 44.1 kHz
Frame rate : 43.066 FPS (1024 SPF)
Compression mode : Lossy
Stream size : 38.8 MiB (76%)
Default : Yes
Alternate group : 1

Screenshots


Coursera - Digital Signal Processing .

Coursera - Digital Signal Processing .

Coursera - Digital Signal Processing .


Download link:

uploadgig_com:
https://uploadgig.com/file/download/083c0e7fd2127e61/2wcv0.Coursera..Digital.Signal.Processing.part1.rar
https://uploadgig.com/file/download/1D273Fc1AE664D20/2wcv0.Coursera..Digital.Signal.Processing.part2.rar
https://uploadgig.com/file/download/23e0aD1495bf6875/2wcv0.Coursera..Digital.Signal.Processing.part3.rar
https://uploadgig.com/file/download/152C3527aDb757Be/2wcv0.Coursera..Digital.Signal.Processing.part4.rar
https://uploadgig.com/file/download/Eceb5eDfcdcD058f/2wcv0.Coursera..Digital.Signal.Processing.part5.rar
https://uploadgig.com/file/download/eB49bc82c399d7FE/2wcv0.Coursera..Digital.Signal.Processing.part6.rar
https://uploadgig.com/file/download/Fd427a16e69e367d/2wcv0.Coursera..Digital.Signal.Processing.part7.rar

rapidgator_net:
https://rapidgator.net/file/48601022858700cddc38b05e1a75bff5/2wcv0.Coursera..Digital.Signal.Processing.part1.rar.html
https://rapidgator.net/file/aaebc4fc58f816fd1eedcf009d1f71a5/2wcv0.Coursera..Digital.Signal.Processing.part2.rar.html
https://rapidgator.net/file/91a232f5cba94f38d28f55625a16e042/2wcv0.Coursera..Digital.Signal.Processing.part3.rar.html
https://rapidgator.net/file/fcc21053f3f3d8c3e95c683d42dc2296/2wcv0.Coursera..Digital.Signal.Processing.part4.rar.html
https://rapidgator.net/file/dff03fdef4be8b759bdbac691c3970ca/2wcv0.Coursera..Digital.Signal.Processing.part5.rar.html
https://rapidgator.net/file/c6fe1c958bca3f6b23195ddf448216c9/2wcv0.Coursera..Digital.Signal.Processing.part6.rar.html
https://rapidgator.net/file/369239d69b4c8d0b95be2f207c32a18b/2wcv0.Coursera..Digital.Signal.Processing.part7.rar.html

nitroflare_com:
http://nitroflare.com/view/97C6C8ACD515B9D/2wcv0.Coursera..Digital.Signal.Processing.part1.rar
http://nitroflare.com/view/EF03486FF39477F/2wcv0.Coursera..Digital.Signal.Processing.part2.rar
http://nitroflare.com/view/56028884EA36F63/2wcv0.Coursera..Digital.Signal.Processing.part3.rar
http://nitroflare.com/view/8E7BBE2FFB2FE62/2wcv0.Coursera..Digital.Signal.Processing.part4.rar
http://nitroflare.com/view/441408EF6DD01C0/2wcv0.Coursera..Digital.Signal.Processing.part5.rar
http://nitroflare.com/view/D045F89AACFBA97/2wcv0.Coursera..Digital.Signal.Processing.part6.rar
http://nitroflare.com/view/75918D8EF25881E/2wcv0.Coursera..Digital.Signal.Processing.part7.rar


Links are Interchangeable - No Password - Single Extraction
Direct Download

Tags: Coursera, Digital, Signal, Processing

Coursera - Digital Signal Processing . from rapidshare mediafire megaupload hotfile, Coursera - Digital Signal Processing . via torrent or emule, full free Coursera - Digital Signal Processing ., Coursera - Digital Signal Processing . rar zip password or anything related.

Comments:

Name:*
E-Mail:*
Add Comments:
Enter Code: *