Acoustic Fingerstyle Contemporary with Max Milligan .

Download Now

Acoustic Fingerstyle Contemporary with Max Milligan .

Acoustic Fingerstyle Contemporary with Max Milligan
DVD5 | English | VIDEO_TS | 720 x 480 | MPEG2 ~6228 kbps | 29.970 fps
PCM 1536 Kbps 48.0 KHz | 2 channels | 1 hour | 3.76 GB
Genre: eLearning Video / Guitar lesson, Singing, Voice

The Acoustic Fingerstyle series of instructional programs will teach you all the skills needed to master the acoustic style. This 3rd lesson, geared toward the intermediate player, will show how to successfully put together an arrangement of a well-known piece.

Classic traditional tunes are used to demonstrate the different styles and executions used by great guitarists like Tommy Emmanuel, Merle Travis, and Chet Atkins. This program will help you become a red hot picker.

General
Complete name : VTS_02_3.VOB
Format : MPEG-PS
File size : 1 024 MiB
Duration : 18 min 4 s
Overall bit rate mode : Variable
Overall bit rate : 7 921 kb/s

Video
ID : 224 (0xE0)
Format : MPEG Video
Format version : Version 2
Format profile : [email protected]
Format settings : CustomMatrix / BVOP
Format settings, BVOP : Yes
Format settings, Matrix : Custom
Format settings, GOP : M=3, N=15
Format settings, picture structure : Frame
Duration : 18 min 4 s
Bit rate mode : Variable
Bit rate : 6 228 kb/s
Maximum bit rate : 7 700 kb/s
Width : 720 pixels
Height : 480 pixels
Display aspect ratio : 16:9
Frame rate : 29.970 (30000/1001) FPS
Standard : NTSC
Color space : YUV
Chroma subsampling : 4:2:0
Bit depth : 8 bits
Scan type : Interlaced
Scan order : Bottom Field First
Compression mode : Lossy
Bits/(Pixel*Frame) : 0.601
Time code of first frame : 10:34:41;26
Time code source : Group of pictures header
GOP, Open/Closed : Closed
Stream size : 805 MiB (79%)
Color primaries : BT.601 NTSC
Transfer characteristics : BT.601
Matrix coefficients : BT.601

Audio
ID : 189 (0xBD)-160 (0xA0)
Format : PCM
Format settings : Big / Signed
Muxing mode : DVD-Video
Duration : 18 min 4 s
Bit rate mode : Constant
Bit rate : 1 536 kb/s
Channel(s) : 2 channels
Sampling rate : 48.0 kHz
Bit depth : 16 bits
Delay relative to video : -369 ms
Stream size : 199 MiB (19%)

Screenshots


Acoustic Fingerstyle Contemporary with Max Milligan .

Acoustic Fingerstyle Contemporary with Max Milligan .

Acoustic Fingerstyle Contemporary with Max Milligan .


Download link:

uploadgig_com:
https://uploadgig.com/file/download/b94fDC993f6725d5/tzipq.Acoustic.Fingerstyle.Contemporary.with.Max.Milligan.part1.rar
https://uploadgig.com/file/download/e0dC5b90a0df0d7D/tzipq.Acoustic.Fingerstyle.Contemporary.with.Max.Milligan.part2.rar
https://uploadgig.com/file/download/89a35f997cD67C38/tzipq.Acoustic.Fingerstyle.Contemporary.with.Max.Milligan.part3.rar
https://uploadgig.com/file/download/14e2DF6bab1fa90f/tzipq.Acoustic.Fingerstyle.Contemporary.with.Max.Milligan.part4.rar
https://uploadgig.com/file/download/54Bf34bB3e87e61a/tzipq.Acoustic.Fingerstyle.Contemporary.with.Max.Milligan.part5.rar
https://uploadgig.com/file/download/5bC16dc92564cbc7/tzipq.Acoustic.Fingerstyle.Contemporary.with.Max.Milligan.part6.rar
https://uploadgig.com/file/download/28833641C2b236A4/tzipq.Acoustic.Fingerstyle.Contemporary.with.Max.Milligan.part7.rar
https://uploadgig.com/file/download/C54A0a4eb585786c/tzipq.Acoustic.Fingerstyle.Contemporary.with.Max.Milligan.part8.rar

rapidgator_net:
https://rapidgator.net/file/8ace7a522ec095da485274109f7dec6e/tzipq.Acoustic.Fingerstyle.Contemporary.with.Max.Milligan.part1.rar.html
https://rapidgator.net/file/d0d68a1a6c0f8c980ec1c05bf0825e5f/tzipq.Acoustic.Fingerstyle.Contemporary.with.Max.Milligan.part2.rar.html
https://rapidgator.net/file/567af03f12726b443ce4a9138cba4da6/tzipq.Acoustic.Fingerstyle.Contemporary.with.Max.Milligan.part3.rar.html
https://rapidgator.net/file/6e1e9913320efb037062bfa5c7129fcc/tzipq.Acoustic.Fingerstyle.Contemporary.with.Max.Milligan.part4.rar.html
https://rapidgator.net/file/91eb87bb9dc33d3bfcf2167199d9fca2/tzipq.Acoustic.Fingerstyle.Contemporary.with.Max.Milligan.part5.rar.html
https://rapidgator.net/file/400e74dbcdf05ee79fb6f62e20c82d80/tzipq.Acoustic.Fingerstyle.Contemporary.with.Max.Milligan.part6.rar.html
https://rapidgator.net/file/a7c968b4475841e686a777fdb90cfbfa/tzipq.Acoustic.Fingerstyle.Contemporary.with.Max.Milligan.part7.rar.html
https://rapidgator.net/file/6c6fc472247c7a2b1386932f77f9d978/tzipq.Acoustic.Fingerstyle.Contemporary.with.Max.Milligan.part8.rar.html

nitroflare_com:
http://nitroflare.com/view/BF4C9D04743C335/tzipq.Acoustic.Fingerstyle.Contemporary.with.Max.Milligan.part1.rar
http://nitroflare.com/view/2C704597C66DAE8/tzipq.Acoustic.Fingerstyle.Contemporary.with.Max.Milligan.part2.rar
http://nitroflare.com/view/F91AAB1A7B55635/tzipq.Acoustic.Fingerstyle.Contemporary.with.Max.Milligan.part3.rar
http://nitroflare.com/view/D59630C5E994540/tzipq.Acoustic.Fingerstyle.Contemporary.with.Max.Milligan.part4.rar
http://nitroflare.com/view/58AAD35AE41DB60/tzipq.Acoustic.Fingerstyle.Contemporary.with.Max.Milligan.part5.rar
http://nitroflare.com/view/B9A610ECDF9FD5D/tzipq.Acoustic.Fingerstyle.Contemporary.with.Max.Milligan.part6.rar
http://nitroflare.com/view/0C6CDBB66DF6761/tzipq.Acoustic.Fingerstyle.Contemporary.with.Max.Milligan.part7.rar
http://nitroflare.com/view/C18349D309AAE25/tzipq.Acoustic.Fingerstyle.Contemporary.with.Max.Milligan.part8.rar


Links are Interchangeable - No Password - Single Extraction
Direct Download

Tags: Acoustic, Fingerstyle, Contemporary, Milligan

Acoustic Fingerstyle Contemporary with Max Milligan . from rapidshare mediafire megaupload hotfile, Acoustic Fingerstyle Contemporary with Max Milligan . via torrent or emule, full free Acoustic Fingerstyle Contemporary with Max Milligan ., Acoustic Fingerstyle Contemporary with Max Milligan . rar zip password or anything related.

Comments:

Name:*
E-Mail:*
Add Comments:
Enter Code: *