Installing Trim with Craig Savage - Fine Homebuilding DVD Workshop .

Download Now

Installing Trim with Craig Savage - Fine Homebuilding DVD Workshop .

Installing Trim with Craig Savage - Fine Homebuilding DVD Workshop
DVDRip | English | AVI | 592 x 448 | XviD ~1342 Kbps | 29.970 fps
MP3 | 138 Kbps | 48.0 KHz | 2 channels | 1h 05mn | 697 MB
Genre: eLearning Video / Homebuilding, Repair, Woodworking

In this tape, designed for professionals and homeowners alike, Savage guides you step-by-step as he trims out parts of a house and shares his job-site savvy and secrets. You'll learn to match pieces of trim precisely, negotiate unsquare openings, and seat moldings solidly against bumpy walls and ceilings.

General
Complete name : Installing Trim with Craig Savage.avi
Format : AVI
Format/Info : Audio Video Interleave
File size : 697 MiB
Duration : 1h 5mn
Overall bit rate mode : Variable
Overall bit rate : 1 494 Kbps
Writing library : The File had been created by Solveig Multimedia AVI Writer

Video
ID : 0
Format : MPEG-4 Visual
Format profile : Advanced [email protected]
Format settings, BVOP : 1
Format settings, QPel : No
Format settings, GMC : No warppoints
Format settings, Matrix : Default (H.263)
Muxing mode : Packed bitstream
Codec ID : XVID
Codec ID/Hint : XviD
Duration : 1h 5mn
Bit rate : 1 342 Kbps
Width : 592 pixels
Height : 448 pixels
Display aspect ratio : 4:3
Frame rate : 29.970 fps
Color space : YUV
Chroma subsampling : 4:2:0
Bit depth : 8 bits
Scan type : Progressive
Compression mode : Lossy
Bits/(Pixel*Frame) : 0.169
Stream size : 627 MiB (90%)
Writing library : XviD 0039 build=2005.09.25 (UTC 2005-09-25)

Audio
ID : 1
Format : MPEG Audio
Format version : Version 1
Format profile : Layer 3
Mode : Joint stereo
Mode extension : MS Stereo
Codec ID : 55
Codec ID/Hint : MP3
Duration : 1h 5mn
Bit rate mode : Variable
Bit rate : 138 Kbps
Nominal bit rate : 128 Kbps
Channel(s) : 2 channels
Sampling rate : 48.0 KHz
Compression mode : Lossy
Stream size : 64.3 MiB (9%)
Alignment : Aligned on interleaves
Interleave, duration : 24 ms (0.72 video frame)
Writing library : LAME3.96r
Encoding settings : -m j -V 4 -q 2 -lowpass 17.5 -abr 128

Screenshots


Installing Trim with Craig Savage - Fine Homebuilding DVD Workshop .

Installing Trim with Craig Savage - Fine Homebuilding DVD Workshop .

Installing Trim with Craig Savage - Fine Homebuilding DVD Workshop .


Download link:



Links are Interchangeable - No Password - Single Extraction
Direct Download

Tags: Installing, Savage, Homebuilding, Workshop

Installing Trim with Craig Savage - Fine Homebuilding DVD Workshop . from rapidshare mediafire megaupload hotfile, Installing Trim with Craig Savage - Fine Homebuilding DVD Workshop . via torrent or emule, full free Installing Trim with Craig Savage - Fine Homebuilding DVD Workshop ., Installing Trim with Craig Savage - Fine Homebuilding DVD Workshop . rar zip password or anything related.

Comments:

Name:*
E-Mail:*
Add Comments:
Enter Code: *