Framing Walls with Larry Haun - Fine Homebuilding DVD Workshop .

Download Now

Framing Walls with Larry Haun - Fine Homebuilding DVD Workshop .

Framing Walls with Larry Haun - Fine Homebuilding DVD Workshop
DVDRip | English | AVI | 512 x 384 | DX50 ~650 Kbps | 25 fps
PCM | 1411 Kbps | 44.1 KHz | 2 channels | 1h 10mn | 1.02 GB
Genre: eLearning Video / Homebuilding, Repair, Woodworking

In this wall-framing video, Larry Haun and his brother Joe build the exterior and interior walls of a basic 1,600 square foot house. Starting from the completed floor deck, they take you step-by-step through the entire process, showing you practical ways to organize tasks, streamline procedures and handle the right tools and materials efficiently.

General
Complete name : Framing Walls with Larry Haun.avi
Format : AVI
Format/Info : Audio Video Interleave
Format profile : OpenDML
File size : 1.02 GiB
Duration : 1h 10mn
Overall bit rate : 2 065 Kbps

Video
ID : 0
Format : MPEG-4 Visual
Format settings, BVOP : 1
Format settings, QPel : No
Format settings, GMC : No warppoints
Format settings, Matrix : Default (H.263)
Muxing mode : Packed bitstream
Codec ID : DX50
Codec ID/Hint : DivX 5
Duration : 1h 10mn
Bit rate : 650 Kbps
Width : 512 pixels
Height : 384 pixels
Display aspect ratio : 4:3
Frame rate : 25.000 fps
Color space : YUV
Chroma subsampling : 4:2:0
Bit depth : 8 bits
Scan type : Progressive
Compression mode : Lossy
Bits/(Pixel*Frame) : 0.132
Stream size : 328 MiB (31%)
Writing library : DivX 6.6.1.4

Audio
ID : 1
Format : PCM
Format settings, Endianness : Little
Format settings, Sign : Signed
Codec ID : 1
Duration : 1h 10mn
Bit rate mode : Constant
Bit rate : 1 411.2 Kbps
Channel(s) : 2 channels
Sampling rate : 44.1 KHz
Bit depth : 16 bits
Stream size : 711 MiB (68%)
Interleave, duration : 1000 ms (25.00 video frames)

Screenshots


Framing Walls with Larry Haun - Fine Homebuilding DVD Workshop .

Framing Walls with Larry Haun - Fine Homebuilding DVD Workshop .

Framing Walls with Larry Haun - Fine Homebuilding DVD Workshop .


Download link:



Links are Interchangeable - No Password - Single Extraction
Direct Download

Tags: Framing, Homebuilding, Workshop

Framing Walls with Larry Haun - Fine Homebuilding DVD Workshop . from rapidshare mediafire megaupload hotfile, Framing Walls with Larry Haun - Fine Homebuilding DVD Workshop . via torrent or emule, full free Framing Walls with Larry Haun - Fine Homebuilding DVD Workshop ., Framing Walls with Larry Haun - Fine Homebuilding DVD Workshop . rar zip password or anything related.

Comments:

Name:*
E-Mail:*
Add Comments:
Enter Code: *