Passion4profession - The Multimedia Heart Of Wellness .

Download Now

Passion4profession - The Multimedia Heart Of Wellness .

Passion4profession - The Multimedia Heart Of Wellness
WEBRip | English | AVI | 720 x 400 | XviD ~880 kbps | 25 fps
MP3 | 128 Kbps | 48.0 KHz | 2 channels | ~3 hours | 836 MB
Genre: eLearning Video / Fitness, Cardio Workout, Health

"Come find out why millions of athletes count on the quality of Passion4Profession": There is an endless amount of brands... However, only a few of them have become synonymous with quality in their field. Did you know that 20 million fitness enthusiasts train each month using YouTube videos containing P4P logo?

Did you know that every day over 1 million athletes train wherever they want, in the gym or at the park, using apps containing P4P logo?
There is an endless amount of brands...
...However, quantity is something you can count. Quality is something you can count on.
Come find out why millions of athletes count on the quality of Passion4Profession.

Includes:

Best Abs Exercises
- Best Adductor Exercises
- Best Arms exercises
- Best Biceps Exercises
- Best Buttocks Exercises
- Best Calf Exercises
- Best Chest Exercises
- Best Dumbbell Exercises
- Best Exercises for Back Muscles
- Best Exercises for Legs
- Best Forearm Exercises
- Best Hamstring Exercises
- Best Lower Back Exercises
- Best Neck Exercises
- Best Quadriceps Exercises
- Best Shoulders Exercises
- Best Stability Ball Exercises
- Best Triceps Exercises

General
Complete name : Alternating Curls.avi
Format : AVI
Format/Info : Audio Video Interleave
File size : 11.5 MiB
Duration : 1 min 34 s
Overall bit rate : 1 020 kb/s
Writing application : MEncoder SVN-r30881(20100311-gcc4.3.3)
Writing library : MPlayer

Video
ID : 0
Format : MPEG-4 Visual
Format profile : Advanced [email protected]
Format settings : BVOP2
Format settings, BVOP : 2
Format settings, QPel : No
Format settings, GMC : No warppoints
Format settings, Matrix : Default (H.263)
Codec ID : XVID
Codec ID/Hint : XviD
Duration : 1 min 34 s
Bit rate : 880 kb/s
Width : 720 pixels
Height : 400 pixels
Display aspect ratio : 16:9
Frame rate : 25.000 FPS
Color space : YUV
Chroma subsampling : 4:2:0
Bit depth : 8 bits
Scan type : Progressive
Compression mode : Lossy
Bits/(Pixel*Frame) : 0.122
Stream size : 9.90 MiB (86%)
Writing library : XviD 1.2.1 (UTC 2008-12-04)

Audio
ID : 1
Format : MPEG Audio
Format version : Version 1
Format profile : Layer 3
Format settings : Joint stereo / MS Stereo
Codec ID : 55
Codec ID/Hint : MP3
Duration : 1 min 34 s
Bit rate mode : Constant
Bit rate : 128 kb/s
Channel(s) : 2 channels
Sampling rate : 48.0 kHz
Compression mode : Lossy
Delay relative to video : 40 ms
Stream size : 1.44 MiB (13%)
Alignment : Aligned on interleaves
Interleave, duration : 24 ms (0.60 video frame)
Interleave, preload duration : 504 ms
Writing library : LAME3.98

Screenshots


Passion4profession - The Multimedia Heart Of Wellness .

Passion4profession - The Multimedia Heart Of Wellness .

Passion4profession - The Multimedia Heart Of Wellness .


Download link:

uploadgig_com:
https://uploadgig.com/file/download/fA2e22211d6cc8e6/p67pe.Passion4profession..The.Multimedia.Heart.Of.Wellness.part01.rar
https://uploadgig.com/file/download/8f7436f184d837F4/p67pe.Passion4profession..The.Multimedia.Heart.Of.Wellness.part02.rar
https://uploadgig.com/file/download/3602688c4CfbE040/p67pe.Passion4profession..The.Multimedia.Heart.Of.Wellness.part03.rar
https://uploadgig.com/file/download/173357e1100F3fc3/p67pe.Passion4profession..The.Multimedia.Heart.Of.Wellness.part04.rar
https://uploadgig.com/file/download/fE7fce597c853449/p67pe.Passion4profession..The.Multimedia.Heart.Of.Wellness.part05.rar
https://uploadgig.com/file/download/1f334fC2f3513545/p67pe.Passion4profession..The.Multimedia.Heart.Of.Wellness.part06.rar
https://uploadgig.com/file/download/e9Ff7e29Bb0819ce/p67pe.Passion4profession..The.Multimedia.Heart.Of.Wellness.part07.rar
https://uploadgig.com/file/download/6f6FAfa7ffb99fCD/p67pe.Passion4profession..The.Multimedia.Heart.Of.Wellness.part08.rar
https://uploadgig.com/file/download/f30e21e8b45b693f/p67pe.Passion4profession..The.Multimedia.Heart.Of.Wellness.part09.rar

rapidgator_net:
https://rapidgator.net/file/827e7ca73a4d6ab21487a2fb0e1cdd54/p67pe.Passion4profession..The.Multimedia.Heart.Of.Wellness.part01.rar.html
https://rapidgator.net/file/fd52d8aa8f406a0d0b977644cdbb9828/p67pe.Passion4profession..The.Multimedia.Heart.Of.Wellness.part02.rar.html
https://rapidgator.net/file/f891f089b26e266fdfda5547e31869b9/p67pe.Passion4profession..The.Multimedia.Heart.Of.Wellness.part03.rar.html
https://rapidgator.net/file/60b939d4b55c01cbb4e95c4a5b773ca8/p67pe.Passion4profession..The.Multimedia.Heart.Of.Wellness.part04.rar.html
https://rapidgator.net/file/c4aa2a151419268b6fee00907993a529/p67pe.Passion4profession..The.Multimedia.Heart.Of.Wellness.part05.rar.html
https://rapidgator.net/file/00a2e3ead2fbd0d5d0737c2fabbedecc/p67pe.Passion4profession..The.Multimedia.Heart.Of.Wellness.part06.rar.html
https://rapidgator.net/file/8b67eb6a2ed1fb88a20b35a1592223ad/p67pe.Passion4profession..The.Multimedia.Heart.Of.Wellness.part07.rar.html
https://rapidgator.net/file/118e7ecfd9212fc7805da688d5740028/p67pe.Passion4profession..The.Multimedia.Heart.Of.Wellness.part08.rar.html
https://rapidgator.net/file/2292fb158b63ee74f881897c18928034/p67pe.Passion4profession..The.Multimedia.Heart.Of.Wellness.part09.rar.html

nitroflare_com:
http://nitroflare.com/view/33FF71BEDF6F25E/p67pe.Passion4profession..The.Multimedia.Heart.Of.Wellness.part01.rar
http://nitroflare.com/view/E83EB55FEF67EDB/p67pe.Passion4profession..The.Multimedia.Heart.Of.Wellness.part02.rar
http://nitroflare.com/view/8CA034C6F37EB53/p67pe.Passion4profession..The.Multimedia.Heart.Of.Wellness.part03.rar
http://nitroflare.com/view/CA9E888FA3CA8F7/p67pe.Passion4profession..The.Multimedia.Heart.Of.Wellness.part04.rar
http://nitroflare.com/view/75D74565CB9D9C3/p67pe.Passion4profession..The.Multimedia.Heart.Of.Wellness.part05.rar
http://nitroflare.com/view/CC14C171990B4AD/p67pe.Passion4profession..The.Multimedia.Heart.Of.Wellness.part06.rar
http://nitroflare.com/view/522D267274B839F/p67pe.Passion4profession..The.Multimedia.Heart.Of.Wellness.part07.rar
http://nitroflare.com/view/2AE00070E571E68/p67pe.Passion4profession..The.Multimedia.Heart.Of.Wellness.part08.rar
http://nitroflare.com/view/EA9705E6976B60F/p67pe.Passion4profession..The.Multimedia.Heart.Of.Wellness.part09.rar


Links are Interchangeable - No Password - Single Extraction
Direct Download

Tags: Passion, Multimedia, Wellness

Passion4profession - The Multimedia Heart Of Wellness . from rapidshare mediafire megaupload hotfile, Passion4profession - The Multimedia Heart Of Wellness . via torrent or emule, full free Passion4profession - The Multimedia Heart Of Wellness ., Passion4profession - The Multimedia Heart Of Wellness . rar zip password or anything related.

Comments:

Name:*
E-Mail:*
Add Comments:
Enter Code: *