Couples Massage - Learn How to Connect and Soothe .

Download Now

Couples Massage - Learn How to Connect and Soothe .

Couples Massage - Learn How to Connect and Soothe
7xDVDRip's | English | MP4 | 1280 x 720 | AVC ~2422 kbps | 30 fps
AAC | 70 Kbps | 44.1 KHz | 2 channels | 00:53:07 | 1.42 GB
Genre: eLearning Video / Massage, Relationships

One of the most bonding activities for couples to relieve stress and increase connection is through massage. We all love to be touched and massage allows us to feel each other's energy. It's no surprise that couples massage is a growing trend as it has many healing powers that can improve relationships.

But how do you learn how to properly massage your partner?

It wouldn't be smart to just start massaging your partner without understanding how to properly give a massage - this could lead to injury!

You need the guide of an experienced massage therapist.

Yasuko Kawamura has over 7 years of experience as a licensed massage therapist while working at luxury spas such as Burke Williams and offering personal training on couples massage. She'll serve as your guide through this 29 day couples massage training course. Each day will help you build upon new massage techniques for different parts of the body.

Here's what will be covered in this course:

Week 1 - Head, Face, Neck and Shoulders
Week 2 - Chest, Tummy, Upper Back and Lower Back
Week 3 - Arms and Legs
Week 4 - Hands and Feet

BONUS: Simple 10 Minute Massage Technique To Soothe

Our Promise to You
By the end of this course, you'll have the knowledge to properly massage your partner through a variety of techniques that will relax both of you and potentially increase your connection.

30 Day Money Back Guarantee. If you are unsatisfied for any reason, simply contact us and we'll give you a full refund. No questions asked.

Get started today and learn how to properly massage your partner!

General
Complete name : couplesmassage-2854424.mp4
Format : MPEG-4
Format profile : Base Media
Codec ID : isom (isom/avc1/mp42)
File size : 38.6 MiB
Duration : 2 min 9 s
Overall bit rate mode : Variable
Overall bit rate : 2 493 kb/s
Encoded date : UTC 2015-04-29 22:52:20
Tagged date : UTC 2015-04-29 22:52:20

Video
ID : 1
Format : AVC
Format/Info : Advanced Video Codec
Format profile : [email protected]
Format settings : 3 Ref Frames
Format settings, CABAC : No
Format settings, RefFrames : 3 frames
Codec ID : avc1
Codec ID/Info : Advanced Video Coding
Duration : 2 min 9 s
Bit rate : 2 422 kb/s
Maximum bit rate : 8 501 kb/s
Width : 1 280 pixels
Height : 720 pixels
Display aspect ratio : 16:9
Frame rate mode : Constant
Frame rate : 30.000 FPS
Color space : YUV
Chroma subsampling : 4:2:0
Bit depth : 8 bits
Scan type : Progressive
Bits/(Pixel*Frame) : 0.088
Stream size : 37.4 MiB (97%)
Writing library : Zencoder Video Encoding System
Encoded date : UTC 2015-04-29 22:51:59
Tagged date : UTC 2015-04-29 22:52:20
Color range : Limited
Color primaries : BT.709
Transfer characteristics : BT.709
Matrix coefficients : BT.709

Audio
ID : 2
Format : AAC
Format/Info : Advanced Audio Codec
Format profile : LC
Codec ID : mp4a-40-2
Duration : 2 min 9 s
Bit rate mode : Variable
Bit rate : 70.0 kb/s
Maximum bit rate : 83.4 kb/s
Channel(s) : 2 channels
Channel positions : Front: L R
Sampling rate : 44.1 kHz
Frame rate : 43.066 FPS (1024 SPF)
Compression mode : Lossy
Stream size : 1.08 MiB (3%)
Encoded date : UTC 2015-04-29 22:52:20
Tagged date : UTC 2015-04-29 22:52:20

Screenshots


Couples Massage - Learn How to Connect and Soothe .

Couples Massage - Learn How to Connect and Soothe .

Couples Massage - Learn How to Connect and Soothe .


Download link:

uploadgig_com:
https://uploadgig.com/file/download/3d1b555847a85765/sgap2.Couples.Massage..Learn.How.to.Connect.and.Soothe.part01.rar
https://uploadgig.com/file/download/c1da5ED22b12f04a/sgap2.Couples.Massage..Learn.How.to.Connect.and.Soothe.part02.rar
https://uploadgig.com/file/download/bc27eC59856C70b0/sgap2.Couples.Massage..Learn.How.to.Connect.and.Soothe.part03.rar
https://uploadgig.com/file/download/1b8f305236aa6d83/sgap2.Couples.Massage..Learn.How.to.Connect.and.Soothe.part04.rar
https://uploadgig.com/file/download/5e3B36811f46e1ef/sgap2.Couples.Massage..Learn.How.to.Connect.and.Soothe.part05.rar
https://uploadgig.com/file/download/93c83E088141fe3c/sgap2.Couples.Massage..Learn.How.to.Connect.and.Soothe.part06.rar
https://uploadgig.com/file/download/ae8710bC21d6bb7D/sgap2.Couples.Massage..Learn.How.to.Connect.and.Soothe.part07.rar
https://uploadgig.com/file/download/1b57a76f3e1962d3/sgap2.Couples.Massage..Learn.How.to.Connect.and.Soothe.part08.rar
https://uploadgig.com/file/download/1657D5870deb1176/sgap2.Couples.Massage..Learn.How.to.Connect.and.Soothe.part09.rar
https://uploadgig.com/file/download/86c0b079c2237d98/sgap2.Couples.Massage..Learn.How.to.Connect.and.Soothe.part10.rar

rapidgator_net:
https://rapidgator.net/file/3f408206f28600b4305e11c243be990d/sgap2.Couples.Massage..Learn.How.to.Connect.and.Soothe.part01.rar.html
https://rapidgator.net/file/838511459158b43eef0f6e87cdef39a3/sgap2.Couples.Massage..Learn.How.to.Connect.and.Soothe.part02.rar.html
https://rapidgator.net/file/1154047dad284c01c1e60ca5cbc1f5cf/sgap2.Couples.Massage..Learn.How.to.Connect.and.Soothe.part03.rar.html
https://rapidgator.net/file/f1a9faf6b831900408255234f15d3209/sgap2.Couples.Massage..Learn.How.to.Connect.and.Soothe.part04.rar.html
https://rapidgator.net/file/1926cca1c6b0037dc1f38602e963248a/sgap2.Couples.Massage..Learn.How.to.Connect.and.Soothe.part05.rar.html
https://rapidgator.net/file/13cdf546336b9d057f88a155ecfd3497/sgap2.Couples.Massage..Learn.How.to.Connect.and.Soothe.part06.rar.html
https://rapidgator.net/file/e075bb52654fcd255134bb636f044087/sgap2.Couples.Massage..Learn.How.to.Connect.and.Soothe.part07.rar.html
https://rapidgator.net/file/07bbeaac36a27ee7b8d079e48cde408d/sgap2.Couples.Massage..Learn.How.to.Connect.and.Soothe.part08.rar.html
https://rapidgator.net/file/0419f32b2912d31c0871085eca19db3c/sgap2.Couples.Massage..Learn.How.to.Connect.and.Soothe.part09.rar.html
https://rapidgator.net/file/52b5f091c72f97bfbff3138e05001701/sgap2.Couples.Massage..Learn.How.to.Connect.and.Soothe.part10.rar.html

nitroflare_com:
http://nitroflare.com/view/F823AA33C7CE466/sgap2.Couples.Massage..Learn.How.to.Connect.and.Soothe.part01.rar
http://nitroflare.com/view/0789B5F9F0E9853/sgap2.Couples.Massage..Learn.How.to.Connect.and.Soothe.part02.rar
http://nitroflare.com/view/444BCC89C3B53DA/sgap2.Couples.Massage..Learn.How.to.Connect.and.Soothe.part03.rar
http://nitroflare.com/view/CCF46E5BED3186B/sgap2.Couples.Massage..Learn.How.to.Connect.and.Soothe.part04.rar
http://nitroflare.com/view/9A17DAF14B196C2/sgap2.Couples.Massage..Learn.How.to.Connect.and.Soothe.part05.rar
http://nitroflare.com/view/FE400F1C5E4D3C3/sgap2.Couples.Massage..Learn.How.to.Connect.and.Soothe.part06.rar
http://nitroflare.com/view/4A91B9F1721B943/sgap2.Couples.Massage..Learn.How.to.Connect.and.Soothe.part07.rar
http://nitroflare.com/view/9F8C15675EE4F3F/sgap2.Couples.Massage..Learn.How.to.Connect.and.Soothe.part08.rar
http://nitroflare.com/view/F2421CEA52D9F43/sgap2.Couples.Massage..Learn.How.to.Connect.and.Soothe.part09.rar
http://nitroflare.com/view/4008519FBDAE6A4/sgap2.Couples.Massage..Learn.How.to.Connect.and.Soothe.part10.rar


Links are Interchangeable - No Password - Single Extraction
Direct Download

Tags: Couples, Massage, Connect, Soothe

Couples Massage - Learn How to Connect and Soothe . from rapidshare mediafire megaupload hotfile, Couples Massage - Learn How to Connect and Soothe . via torrent or emule, full free Couples Massage - Learn How to Connect and Soothe ., Couples Massage - Learn How to Connect and Soothe . rar zip password or anything related.

Comments:

Name:*
E-Mail:*
Add Comments:
Enter Code: *