Lick Library Bass Legends - John Deacon .

Download Now

Lick Library Bass Legends - John Deacon .

Lick Library: Bass Legends - John Deacon
WEBRip | English | MP4 | 768 x 576 | AVC ~1400 kbps | 25 fps
AAC 127 Kbps 48.0 KHz | 2 channels | 02:25:07 | 1.55 GB
Genre: eLearning Video / Guitar lesson

Learn five Queen tracks note for note with Phil Williams. This excellent DVD will teach you some of the classic bass licks from Queens diverse rock and pop repertoire... plus complete tutorials for five tracks including:

Bohemian Rhapsody
Tie Your Mother Down
Now Im Here
Hammer To Fall
Crazy Little Thing Called Love

General
Complete name : 03_2nd Verse, Climb & Link Sections.mp4
Format : MPEG-4
Format profile : Base Media
Codec ID : isom (isom/avc1/iso6)
File size : 59.8 MiB
Duration : 5 min 27 s
Overall bit rate mode : Variable
Overall bit rate : 1 530 kb/s
Encoded date : UTC 2015-05-12 11:04:12
Tagged date : UTC 2015-05-12 11:04:12

Video
ID : 1
Format : AVC
Format/Info : Advanced Video Codec
Format profile : [email protected]
Format settings : CABAC / 5 Ref Frames
Format settings, CABAC : Yes
Format settings, RefFrames : 5 frames
Codec ID : avc1
Codec ID/Info : Advanced Video Coding
Duration : 5 min 27 s
Bit rate : 1 400 kb/s
Maximum bit rate : 2 782 kb/s
Width : 768 pixels
Height : 576 pixels
Display aspect ratio : 4:3
Frame rate mode : Constant
Frame rate : 25.000 FPS
Color space : YUV
Chroma subsampling : 4:2:0
Bit depth : 8 bits
Scan type : Progressive
Bits/(Pixel*Frame) : 0.127
Stream size : 54.6 MiB (91%)
Writing library : x264 core 144 r2525kMod 40bb568
Encoding settings : cabac=1 / ref=5 / deblock=1:0:0 / analyse=0x3:0x113 / me=umh / subme=8 / psy=1 / fade_compensate=0.00 / psy_rd=1.00:0.00 / mixed_ref=1 / me_range=16 / chroma_me=1 / trellis=1 / 8x8dct=1 / cqm=0 / deadzone=21,11 / fast_pskip=1 / chroma_qp_offset=-2 / threads=12 / lookahead_threads=2 / sliced_threads=0 / nr=0 / decimate=1 / interlaced=0 / bluray_compat=0 / constrained_intra=0 / fgo=0 / bframes=3 / b_pyramid=2 / b_adapt=2 / b_bias=0 / direct=3 / weightb=1 / open_gop=0 / weightp=2 / keyint=250 / keyint_min=25 / scenecut=40 / intra_refresh=0 / rc_lookahead=50 / rc=2pass / mbtree=1 / bitrate=1400 / ratetol=1.0 / qcomp=0.60 / qpmin=0 / qpmax=69 / qpstep=4 / cplxblur=20.0 / qblur=0.5 / ip_ratio=1.40 / aq=1:1.00
Encoded date : UTC 2015-05-12 11:04:12
Tagged date : UTC 2015-05-12 11:04:13

Audio
ID : 2
Format : AAC
Format/Info : Advanced Audio Codec
Format profile : LC
Codec ID : mp4a-40-2
Duration : 5 min 27 s
Bit rate mode : Variable
Bit rate : 127 kb/s
Maximum bit rate : 141 kb/s
Channel(s) : 2 channels
Channel positions : Front: L R
Sampling rate : 48.0 kHz
Frame rate : 46.875 FPS (1024 SPF)
Compression mode : Lossy
Stream size : 4.96 MiB (8%)
Encoded date : UTC 2015-05-12 11:02:25
Tagged date : UTC 2015-05-12 11:04:13

Screenshots


Lick Library Bass Legends - John Deacon .

Lick Library Bass Legends - John Deacon .

Lick Library Bass Legends - John Deacon .


Download link:

uploadgig_com:
https://uploadgig.com/file/download/5Db2c9bf2CaB420e/qa3wv.Lick.Library.Bass.Legends..John.Deacon.part01.rar
https://uploadgig.com/file/download/720f6E0cfb0A80fc/qa3wv.Lick.Library.Bass.Legends..John.Deacon.part02.rar
https://uploadgig.com/file/download/c142b96B852db420/qa3wv.Lick.Library.Bass.Legends..John.Deacon.part03.rar
https://uploadgig.com/file/download/cfE21A13Cc2eF23f/qa3wv.Lick.Library.Bass.Legends..John.Deacon.part04.rar
https://uploadgig.com/file/download/d6b96f27cE14f739/qa3wv.Lick.Library.Bass.Legends..John.Deacon.part05.rar
https://uploadgig.com/file/download/877759f3fE254857/qa3wv.Lick.Library.Bass.Legends..John.Deacon.part06.rar
https://uploadgig.com/file/download/d6a29763e7324f9C/qa3wv.Lick.Library.Bass.Legends..John.Deacon.part07.rar
https://uploadgig.com/file/download/caA283feacdfe7F1/qa3wv.Lick.Library.Bass.Legends..John.Deacon.part08.rar
https://uploadgig.com/file/download/b1c59819F36A56c5/qa3wv.Lick.Library.Bass.Legends..John.Deacon.part09.rar
https://uploadgig.com/file/download/c3f52943C8A628ed/qa3wv.Lick.Library.Bass.Legends..John.Deacon.part10.rar

rapidgator_net:
https://rapidgator.net/file/c5e2d2e6ad6da760825bd6c7806bfa11/qa3wv.Lick.Library.Bass.Legends..John.Deacon.part01.rar.html
https://rapidgator.net/file/0606e3630cfdd1cef09dc6c3c9caa3da/qa3wv.Lick.Library.Bass.Legends..John.Deacon.part02.rar.html
https://rapidgator.net/file/27b3fc8373cf15132df041ec7de0f859/qa3wv.Lick.Library.Bass.Legends..John.Deacon.part03.rar.html
https://rapidgator.net/file/a6d18c4fdb1fc5b24e999461f542ac41/qa3wv.Lick.Library.Bass.Legends..John.Deacon.part04.rar.html
https://rapidgator.net/file/c661e871910ecee4dfb1a4491bf965c6/qa3wv.Lick.Library.Bass.Legends..John.Deacon.part05.rar.html
https://rapidgator.net/file/1d0d426cb7e9f64ec89f905b24b0854a/qa3wv.Lick.Library.Bass.Legends..John.Deacon.part06.rar.html
https://rapidgator.net/file/6270667a97346324757bcda232a7221d/qa3wv.Lick.Library.Bass.Legends..John.Deacon.part07.rar.html
https://rapidgator.net/file/191fc415021c9a516bfe8640afe35593/qa3wv.Lick.Library.Bass.Legends..John.Deacon.part08.rar.html
https://rapidgator.net/file/e903f0c7a676783765b349a42d4dde8f/qa3wv.Lick.Library.Bass.Legends..John.Deacon.part09.rar.html
https://rapidgator.net/file/fecbbd48113a87857dbec959f3fa70f6/qa3wv.Lick.Library.Bass.Legends..John.Deacon.part10.rar.html

nitroflare_com:
http://nitroflare.com/view/915E1BA725DD6A0/qa3wv.Lick.Library.Bass.Legends..John.Deacon.part01.rar
http://nitroflare.com/view/964B96756E900EB/qa3wv.Lick.Library.Bass.Legends..John.Deacon.part02.rar
http://nitroflare.com/view/A6717FFE023A727/qa3wv.Lick.Library.Bass.Legends..John.Deacon.part03.rar
http://nitroflare.com/view/A83DC2CD3035EF8/qa3wv.Lick.Library.Bass.Legends..John.Deacon.part04.rar
http://nitroflare.com/view/5AADBAD9605A844/qa3wv.Lick.Library.Bass.Legends..John.Deacon.part05.rar
http://nitroflare.com/view/C0F8ABE775791F3/qa3wv.Lick.Library.Bass.Legends..John.Deacon.part06.rar
http://nitroflare.com/view/4DC80D85D6CE4D5/qa3wv.Lick.Library.Bass.Legends..John.Deacon.part07.rar
http://nitroflare.com/view/2095816DC25A5FA/qa3wv.Lick.Library.Bass.Legends..John.Deacon.part08.rar
http://nitroflare.com/view/763CA9EAFE23EF1/qa3wv.Lick.Library.Bass.Legends..John.Deacon.part09.rar
http://nitroflare.com/view/93DC0CD0893AB25/qa3wv.Lick.Library.Bass.Legends..John.Deacon.part10.rar


Links are Interchangeable - No Password - Single Extraction
Direct Download

Tags: Library, Legends, Deacon

Lick Library Bass Legends - John Deacon . from rapidshare mediafire megaupload hotfile, Lick Library Bass Legends - John Deacon . via torrent or emule, full free Lick Library Bass Legends - John Deacon ., Lick Library Bass Legends - John Deacon . rar zip password or anything related.

Comments:

Name:*
E-Mail:*
Add Comments:
Enter Code: *