Coursera - Nanotechnology The Basics (Rice University) .

Download Now

Coursera - Nanotechnology The Basics (Rice University) .

Coursera - Nanotechnology: The Basics (Rice University)
WEBRip | English | MP4 | 960 x 540 | AVC ~108 kbps | 29.970 fps
AAC | 64.3 Kbps | 44.1 KHz | 2 channels | Subs: English | ~11 hours | 2.23 GB
Genre: eLearning Video / Science, Engineering

Nanotechnology is an emerging area that engages almost every technical discipline - from chemistry to computer science - in the study and application of extremely tiny materials. This short course allows any technically savvy person to go one layer beyond the surface of this broad topic to see the real substance behind the very small.

Nanotechnology is an exciting research area that spans disciplines from electrical engineering to biology. Over the last two decades the basic science of this area has launched new technologies, the first examples of which are finding their way into commercial products. This four week course will provide students with a bird's eye view into this fast moving area and leave students with an appreciation of the importance and foundation of super-small materials and devices.

Week 1: Small, strange and useful! This first week we will introduce nanotechnology. As you will learn, defining the term itself can be a challenge and the discipline has a rich and somewhat controversial history. We will conclude the week with a tour of the different types of materials in the nanotechnology pantheon that sets up the class for the weeks to come.

Week 2: Electronics when materials are super small. There is no doubt our lives have been changed by the small and powerful computers we now use in everything from our cell phones to our coffeemakers. This week you will learn how nanotechnology has been a part of this revolution and what the limits are to making wires and transistors super, super small.

Week 3: How magnets change when they are made small. Magnetism is quite mysterious and the foundation of such cool technologies as flash drives and MRI imaging. Nanotechnology has played a crucial role in advancing all of these diverse applications and in week 3 you'll gain some insight into how that is possible.

Week 4: Shedding light on nanoscale materials and photonics. Compared to electrons, photons are difficult things to trap and control with normal materials. Nanomaterials offer completely new approaches to manipulating light. Whether its through diffraction, or plasmonics, nanotechnology can provide new capabilities for solid state lasers as well as super resolution microscopes.

General
Complete name : 07_Lecture_4.7_Metamaterials-_Invisibility_Cloaks_and_More_11-23.mp4
Format : MPEG-4
Format profile : Base Media
Codec ID : isom
File size : 17.1 MiB
Duration : 13mn 11s
Overall bit rate : 181 Kbps
Writing application : Lavf55.10.100

Video
ID : 1
Format : AVC
Format/Info : Advanced Video Codec
Format profile : [email protected]
Format settings, CABAC : Yes
Format settings, ReFrames : 4 frames
Codec ID : avc1
Codec ID/Info : Advanced Video Coding
Duration : 13mn 11s
Bit rate : 108 Kbps
Width : 960 pixels
Height : 540 pixels
Display aspect ratio : 16:9
Frame rate mode : Constant
Frame rate : 29.970 fps
Color space : YUV
Chroma subsampling : 4:2:0
Bit depth : 8 bits
Scan type : Progressive
Bits/(Pixel*Frame) : 0.007
Stream size : 10.2 MiB (60%)
Writing library : x264 core 129 r2230 1cffe9f
Encoding settings : cabac=1 / ref=3 / deblock=1:0:0 / analyse=0x1:0x111 / me=hex / subme=7 / psy=1 / psy_rd=1.00:0.00 / mixed_ref=1 / me_range=16 / chroma_me=1 / trellis=1 / 8x8dct=0 / cqm=0 / deadzone=21,11 / fast_pskip=1 / chroma_qp_offset=-2 / threads=12 / lookahead_threads=2 / sliced_threads=0 / nr=0 / decimate=1 / interlaced=0 / bluray_compat=0 / constrained_intra=0 / bframes=3 / b_pyramid=2 / b_adapt=1 / b_bias=0 / direct=1 / weightb=1 / open_gop=0 / weightp=2 / keyint=250 / keyint_min=25 / scenecut=40 / intra_refresh=0 / rc_lookahead=40 / rc=crf / mbtree=1 / crf=28.0 / qcomp=0.60 / qpmin=0 / qpmax=69 / qpstep=4 / ip_ratio=1.40 / aq=1:1.00
Language : English

Audio
ID : 2
Format : AAC
Format/Info : Advanced Audio Codec
Format profile : LC
Codec ID : 40
Duration : 13mn 11s
Bit rate mode : Constant
Bit rate : 64.3 Kbps
Channel(s) : 2 channels
Channel positions : Front: L R
Sampling rate : 44.1 KHz
Compression mode : Lossy
Delay relative to video : -800ms
Stream size : 6.07 MiB (35%)
Language : English

Screenshots


Coursera - Nanotechnology The Basics (Rice University) .

Coursera - Nanotechnology The Basics (Rice University) .


Download link:

uploadgig_com:
https://uploadgig.com/file/download/e4da53A9C091fB3e/gblcx.Coursera..Nanotechnology.The.Basics.Rice.University.part1.rar
https://uploadgig.com/file/download/C8799B85af97046f/gblcx.Coursera..Nanotechnology.The.Basics.Rice.University.part2.rar
https://uploadgig.com/file/download/a4F7A28d24aC82c0/gblcx.Coursera..Nanotechnology.The.Basics.Rice.University.part3.rar
https://uploadgig.com/file/download/4d312FaB2a50a047/gblcx.Coursera..Nanotechnology.The.Basics.Rice.University.part4.rar
https://uploadgig.com/file/download/dBB9425524d9e792/gblcx.Coursera..Nanotechnology.The.Basics.Rice.University.part5.rar
https://uploadgig.com/file/download/EC3Bfb65C53ff290/gblcx.Coursera..Nanotechnology.The.Basics.Rice.University.part6.rar

rapidgator_net:
https://rapidgator.net/file/b91420650c2a721b2cd37b8bb7811043/gblcx.Coursera..Nanotechnology.The.Basics.Rice.University.part1.rar.html
https://rapidgator.net/file/8e36cefa62090f5e4608ba2dba7c2937/gblcx.Coursera..Nanotechnology.The.Basics.Rice.University.part2.rar.html
https://rapidgator.net/file/dbff751a089edf64ce772d5a203cb6d9/gblcx.Coursera..Nanotechnology.The.Basics.Rice.University.part3.rar.html
https://rapidgator.net/file/bf340e71e39023b773555c8c8ed6a3ea/gblcx.Coursera..Nanotechnology.The.Basics.Rice.University.part4.rar.html
https://rapidgator.net/file/a79a6fb149fd17b039b9492e5eef5ccf/gblcx.Coursera..Nanotechnology.The.Basics.Rice.University.part5.rar.html
https://rapidgator.net/file/0b8106c133edb922226eb0ccc67f4cdf/gblcx.Coursera..Nanotechnology.The.Basics.Rice.University.part6.rar.html

nitroflare_com:
http://nitroflare.com/view/DD1A53B6D0CF75F/gblcx.Coursera..Nanotechnology.The.Basics.Rice.University.part1.rar
http://nitroflare.com/view/270869B8E4D3B2A/gblcx.Coursera..Nanotechnology.The.Basics.Rice.University.part2.rar
http://nitroflare.com/view/932930774863A79/gblcx.Coursera..Nanotechnology.The.Basics.Rice.University.part3.rar
http://nitroflare.com/view/6E60463D110E62F/gblcx.Coursera..Nanotechnology.The.Basics.Rice.University.part4.rar
http://nitroflare.com/view/860A82389903D84/gblcx.Coursera..Nanotechnology.The.Basics.Rice.University.part5.rar
http://nitroflare.com/view/06538E024E53814/gblcx.Coursera..Nanotechnology.The.Basics.Rice.University.part6.rar


Links are Interchangeable - No Password - Single Extraction
Direct Download

Tags: Coursera, Nanotechnology, Basics, University

Coursera - Nanotechnology The Basics (Rice University) . from rapidshare mediafire megaupload hotfile, Coursera - Nanotechnology The Basics (Rice University) . via torrent or emule, full free Coursera - Nanotechnology The Basics (Rice University) ., Coursera - Nanotechnology The Basics (Rice University) . rar zip password or anything related.

Comments:

Name:*
E-Mail:*
Add Comments:
Enter Code: *