Coursera - Introduction to Philosophy (The University of Edinburgh) .

Download Now

Coursera - Introduction to Philosophy (The University of Edinburgh) .

Coursera - Introduction to Philosophy (The University of Edinburgh)
WEBRip | English | MP4 | 960 x 540 | AVC ~450 kbps | 25 fps
AAC | 128 Kbps | 48.0 KHz | 2 channels | Subs: English | ~5 hours | 766 MB
Genre: eLearning Video / Philosophy

This course will introduce you to some of the main areas of research in contemporary philosophy. Each module a different philosopher will talk you through some of the most important questions and issues in their area of expertise. We'll begin by trying to understand what philosophy is - what are its characteristic aims and methods, and how does it differ from other subjects? Then we'll spend the rest of the course gaining an introductory overview of several different areas of philosophy.

Topics you'll learn about will include:

Epistemology, where we'll consider what our knowledge of the world and ourselves consists in, and how we come to have it;

Philosophy of science, where we'll investigate foundational conceptual issues in scientific research and practice;

Philosophy of Mind, where we'll ask questions about what it means for something to have a mind, and how minds should be understood and explained;

Political Philosophy, where we'll investigate whether we have an obligation to obey the law;

Moral Philosophy, where we'll attempt to understand the nature of our moral judgements and reactions - whether they aim at some objective moral truth, or are mere personal or cultural preferences, and;

Metaphysics, where we'll think through some fundamental conceptual questions about free will and the nature of reality.

The development of this MOOC has been led by the University of Edinburgh's Eidyn research centre.

To accompany 'Introduction to Philosophy', we are pleased to announce a tie-in book from Routledge entitled 'Philosophy for Everyone'. This course companion to the 'Introduction to Philosophy' course was written by the Edinburgh Philosophy team expressly with the needs of MOOC students in mind. 'Philosophy for Everyone' contains clear and user-friendly chapters, chapter summaries, glossary, study questions, suggestions for further reading and guides to online resources. Please click "Start Here" and navigate to the "Optional Reading" page for more information.

General
Complete name : 04_Week_Four-_Morality-_Objective_Relative_or_Emotive_-_Matthew_Chrisman\01_Part_One_-_The_Status_of_Morality_11-26.mp4
Format : MPEG-4
Format profile : Base Media
Codec ID : isom (isom/iso2/avc1/mp41)
File size : 47.8 MiB
Duration : 11 min 26 s
Overall bit rate : 584 kb/s
Movie name : Matthew4.1
Album/Performer : MOOC-Captured
Composer : MOOC-Captured
Description : This video is about Matthew4.1
Writing application : Lavf55.10.100

Video
ID : 1
Format : AVC
Format/Info : Advanced Video Codec
Format profile : [email protected]
Format settings : 4 Ref Frames
Format settings, CABAC : No
Format settings, RefFrames : 4 frames
Codec ID : avc1
Codec ID/Info : Advanced Video Coding
Duration : 11 min 26 s
Bit rate : 450 kb/s
Width : 960 pixels
Height : 540 pixels
Display aspect ratio : 16:9
Frame rate mode : Constant
Frame rate : 25.000 FPS
Color space : YUV
Chroma subsampling : 4:2:0
Bit depth : 8 bits
Scan type : Progressive
Bits/(Pixel*Frame) : 0.035
Stream size : 36.8 MiB (77%)
Writing library : x264 core 129 r2230 1cffe9f
Encoding settings : cabac=0 / ref=2 / deblock=1:0:0 / analyse=0x3:0x111 / me=hex / subme=6 / psy=1 / psy_rd=1.00:0.00 / mixed_ref=1 / me_range=16 / chroma_me=1 / trellis=1 / 8x8dct=1 / cqm=0 / deadzone=21,11 / fast_pskip=1 / chroma_qp_offset=-2 / threads=3 / lookahead_threads=1 / sliced_threads=0 / nr=0 / decimate=1 / interlaced=0 / bluray_compat=0 / constrained_intra=0 / bframes=3 / b_pyramid=2 / b_adapt=1 / b_bias=0 / direct=1 / weightb=1 / open_gop=0 / weightp=1 / keyint=30 / keyint_min=3 / scenecut=40 / intra_refresh=0 / rc_lookahead=30 / rc=crf / mbtree=1 / crf=28.0 / qcomp=0.60 / qpmin=10 / qpmax=51 / qpstep=4 / ip_ratio=1.40 / aq=1:1.00
Language : English

Audio
ID : 2
Format : AAC
Format/Info : Advanced Audio Codec
Format profile : LC
Codec ID : mp4a-40-2
Duration : 11 min 26 s
Duration_LastFrame : -9 ms
Bit rate mode : Constant
Bit rate : 128 kb/s
Channel(s) : 2 channels
Channel positions : Front: L R
Sampling rate : 48.0 kHz
Frame rate : 46.875 FPS (1024 SPF)
Compression mode : Lossy
Stream size : 10.5 MiB (22%)
Language : English
Default : Yes
Alternate group : 1

Screenshots


Coursera - Introduction to Philosophy (The University of Edinburgh) .

Coursera - Introduction to Philosophy (The University of Edinburgh) .

Coursera - Introduction to Philosophy (The University of Edinburgh) .


Download link:

uploadgig_com:
https://uploadgig.com/file/download/541F17Bc4e89300c/glnml.Coursera..Introduction.to.Philosophy.The.University.of.Edinburgh.part1.rar
https://uploadgig.com/file/download/82ab078Ab73629d7/glnml.Coursera..Introduction.to.Philosophy.The.University.of.Edinburgh.part2.rar
https://uploadgig.com/file/download/8a033969C53855E0/glnml.Coursera..Introduction.to.Philosophy.The.University.of.Edinburgh.part3.rar
https://uploadgig.com/file/download/Ad2062099dC2efDb/glnml.Coursera..Introduction.to.Philosophy.The.University.of.Edinburgh.part4.rar
https://uploadgig.com/file/download/fA5cab7241a9738b/glnml.Coursera..Introduction.to.Philosophy.The.University.of.Edinburgh.part5.rar
https://uploadgig.com/file/download/4B28d31d7c1f3115/glnml.Coursera..Introduction.to.Philosophy.The.University.of.Edinburgh.part6.rar
https://uploadgig.com/file/download/b14Da45A3bb64051/glnml.Coursera..Introduction.to.Philosophy.The.University.of.Edinburgh.part7.rar
https://uploadgig.com/file/download/e62438e1D77fDb42/glnml.Coursera..Introduction.to.Philosophy.The.University.of.Edinburgh.part8.rar

rapidgator_net:
https://rapidgator.net/file/cf406da5d77e6b2cf9ea1c293688cce8/glnml.Coursera..Introduction.to.Philosophy.The.University.of.Edinburgh.part1.rar.html
https://rapidgator.net/file/8aa2aaefd96b594b4e5cf800ccd37e3e/glnml.Coursera..Introduction.to.Philosophy.The.University.of.Edinburgh.part2.rar.html
https://rapidgator.net/file/ebd7ad1b8f9426207be22f3c951c2b7b/glnml.Coursera..Introduction.to.Philosophy.The.University.of.Edinburgh.part3.rar.html
https://rapidgator.net/file/c663395e24ae0acfdaa1d3b0ae9bf638/glnml.Coursera..Introduction.to.Philosophy.The.University.of.Edinburgh.part4.rar.html
https://rapidgator.net/file/21ce87c5751765f15f8e053f3945221e/glnml.Coursera..Introduction.to.Philosophy.The.University.of.Edinburgh.part5.rar.html
https://rapidgator.net/file/3ab1828da98e61a9af8e07ff4e5a125b/glnml.Coursera..Introduction.to.Philosophy.The.University.of.Edinburgh.part6.rar.html
https://rapidgator.net/file/17fb4328ae37a3e18cdd1acd596380d5/glnml.Coursera..Introduction.to.Philosophy.The.University.of.Edinburgh.part7.rar.html
https://rapidgator.net/file/ca380ed84deff454099b88eb5bf7e76f/glnml.Coursera..Introduction.to.Philosophy.The.University.of.Edinburgh.part8.rar.html

nitroflare_com:
http://nitroflare.com/view/BDD4A9D2AFC779F/glnml.Coursera..Introduction.to.Philosophy.The.University.of.Edinburgh.part1.rar
http://nitroflare.com/view/179774F19968DA0/glnml.Coursera..Introduction.to.Philosophy.The.University.of.Edinburgh.part2.rar
http://nitroflare.com/view/C2421D2091EBC9F/glnml.Coursera..Introduction.to.Philosophy.The.University.of.Edinburgh.part3.rar
http://nitroflare.com/view/9CF1B250122F0BA/glnml.Coursera..Introduction.to.Philosophy.The.University.of.Edinburgh.part4.rar
http://nitroflare.com/view/42C79334D155EAA/glnml.Coursera..Introduction.to.Philosophy.The.University.of.Edinburgh.part5.rar
http://nitroflare.com/view/055E295FD6ACD5A/glnml.Coursera..Introduction.to.Philosophy.The.University.of.Edinburgh.part6.rar
http://nitroflare.com/view/6581F4298457C9F/glnml.Coursera..Introduction.to.Philosophy.The.University.of.Edinburgh.part7.rar
http://nitroflare.com/view/E1B998C48238B93/glnml.Coursera..Introduction.to.Philosophy.The.University.of.Edinburgh.part8.rar


Links are Interchangeable - No Password - Single Extraction
Direct Download

Tags: Coursera, Introduction, Philosophy, University, Edinburgh

Coursera - Introduction to Philosophy (The University of Edinburgh) . from rapidshare mediafire megaupload hotfile, Coursera - Introduction to Philosophy (The University of Edinburgh) . via torrent or emule, full free Coursera - Introduction to Philosophy (The University of Edinburgh) ., Coursera - Introduction to Philosophy (The University of Edinburgh) . rar zip password or anything related.

Comments:

Name:*
E-Mail:*
Add Comments:
Enter Code: *