Timing Belt Diagnostic, Repair and Maintenance - AutoZone DVD .

Download Now

Timing Belt Diagnostic, Repair and Maintenance - AutoZone DVD .

Timing Belt: Diagnostic, Repair and Maintenance - AutoZone DVD
DVDRip | English | AVI | 640 x 464 | XviD ~1722 kbps | 29.970 fps
AC-3 | 192 Kbps | 48.0 KHz | 2 channels | 00:49:07 | 677 MB
Genre: eLearning Video / Car Repair, Do-It-Yourself

Both novice and advanced do-it-yourselfers will gain valuable knowledge as they learn the steps the pros use to replace a timing belt. One of the Autozone Complete Car Series of Videos, this information-packed DVD hosted by ASE-Certified Master Technician Bruce Bonebrake guides the viewer step-by-step through common automotive maintenance tasks in easy to understand segments. the importance of replacing timing belts at recommended intervals. Interference vs. non-interference engines. Removal and installation of the belt, tensioner and water pump.

General
Complete name : Autozone timing belt.avi
Format : AVI
Format/Info : Audio Video Interleave
File size : 677 MiB
Duration : 49mn 7s
Overall bit rate : 1 926 Kbps
Writing application : VirtualDubMod 1.5.10.2 (build 2540/release)
Writing library : VirtualDubMod build 2540/release

Video
ID : 0
Format : MPEG-4 Visual
Format profile : Advanced [email protected]
Format settings, BVOP : 2
Format settings, QPel : No
Format settings, GMC : No warppoints
Format settings, Matrix : Default (H.263)
Muxing mode : Packed bitstream
Codec ID : XVID
Codec ID/Hint : XviD
Duration : 49mn 7s
Bit rate : 1 722 Kbps
Width : 640 pixels
Height : 464 pixels
Display aspect ratio : 1.379
Frame rate : 29.970 fps
Color space : YUV
Chroma subsampling : 4:2:0
Bit depth : 8 bits
Scan type : Progressive
Compression mode : Lossy
Bits/(Pixel*Frame) : 0.193
Stream size : 605 MiB (89%)
Writing library : XviD 1.0.3 (UTC 2004-12-20)

Audio
ID : 1
Format : AC-3
Format/Info : Audio Coding 3
Mode extension : CM (complete main)
Codec ID : 2000
Duration : 49mn 7s
Bit rate mode : Constant
Bit rate : 192 Kbps
Channel(s) : 2 channels
Channel positions : Front: L R
Sampling rate : 48.0 KHz
Bit depth : 16 bits
Compression mode : Lossy
Delay relative to video : 2ms
Stream size : 67.5 MiB (10%)
Alignment : Split accross interleaves
Interleave, duration : 33 ms (1.00 video frame)
Interleave, preload duration : 500 ms

Screenshots


Timing Belt Diagnostic, Repair and Maintenance - AutoZone DVD .

Timing Belt Diagnostic, Repair and Maintenance - AutoZone DVD .

Timing Belt Diagnostic, Repair and Maintenance - AutoZone DVD .


Download link:

uploadgig_com:
https://uploadgig.com/file/download/807d4bacfaF17eD4/72f8v.Timing.Belt.Diagnostic.Repair.and.Maintenance..AutoZone.DVD.part1.rar
https://uploadgig.com/file/download/2daacd82074a189a/72f8v.Timing.Belt.Diagnostic.Repair.and.Maintenance..AutoZone.DVD.part2.rar
https://uploadgig.com/file/download/5fa11B4ca6793E17/72f8v.Timing.Belt.Diagnostic.Repair.and.Maintenance..AutoZone.DVD.part3.rar
https://uploadgig.com/file/download/01e3C81Fc8c5Cb0d/72f8v.Timing.Belt.Diagnostic.Repair.and.Maintenance..AutoZone.DVD.part4.rar
https://uploadgig.com/file/download/60e7fdf2c85B10d3/72f8v.Timing.Belt.Diagnostic.Repair.and.Maintenance..AutoZone.DVD.part5.rar
https://uploadgig.com/file/download/3fd93651961B7c4b/72f8v.Timing.Belt.Diagnostic.Repair.and.Maintenance..AutoZone.DVD.part6.rar
https://uploadgig.com/file/download/5B71d0Aa3ba51176/72f8v.Timing.Belt.Diagnostic.Repair.and.Maintenance..AutoZone.DVD.part7.rar

rapidgator_net:
https://rapidgator.net/file/e32bf25978c86c38455a87ca3a6e18af/72f8v.Timing.Belt.Diagnostic.Repair.and.Maintenance..AutoZone.DVD.part1.rar.html
https://rapidgator.net/file/b98ccc146da19e27900485a869883cdf/72f8v.Timing.Belt.Diagnostic.Repair.and.Maintenance..AutoZone.DVD.part2.rar.html
https://rapidgator.net/file/66aaa956b2893cdb7fd7147ba973b25b/72f8v.Timing.Belt.Diagnostic.Repair.and.Maintenance..AutoZone.DVD.part3.rar.html
https://rapidgator.net/file/e8af65605b3d980a3273b2b1038f774b/72f8v.Timing.Belt.Diagnostic.Repair.and.Maintenance..AutoZone.DVD.part4.rar.html
https://rapidgator.net/file/07d54c7ee6dc0acfc30d65933ad731d7/72f8v.Timing.Belt.Diagnostic.Repair.and.Maintenance..AutoZone.DVD.part5.rar.html
https://rapidgator.net/file/1848457fba878c2b531a48e14aa4edff/72f8v.Timing.Belt.Diagnostic.Repair.and.Maintenance..AutoZone.DVD.part6.rar.html
https://rapidgator.net/file/076891ad4dfbfd4c933c819129a52c02/72f8v.Timing.Belt.Diagnostic.Repair.and.Maintenance..AutoZone.DVD.part7.rar.html

nitroflare_com:
http://nitroflare.com/view/E93EBA53949029E/72f8v.Timing.Belt.Diagnostic.Repair.and.Maintenance..AutoZone.DVD.part1.rar
http://nitroflare.com/view/58C3A93AD0A24D2/72f8v.Timing.Belt.Diagnostic.Repair.and.Maintenance..AutoZone.DVD.part2.rar
http://nitroflare.com/view/6A02294B0EDF3C8/72f8v.Timing.Belt.Diagnostic.Repair.and.Maintenance..AutoZone.DVD.part3.rar
http://nitroflare.com/view/721818E4973025F/72f8v.Timing.Belt.Diagnostic.Repair.and.Maintenance..AutoZone.DVD.part4.rar
http://nitroflare.com/view/A301BF0376D4B7D/72f8v.Timing.Belt.Diagnostic.Repair.and.Maintenance..AutoZone.DVD.part5.rar
http://nitroflare.com/view/A03AAE34D5E9B9D/72f8v.Timing.Belt.Diagnostic.Repair.and.Maintenance..AutoZone.DVD.part6.rar
http://nitroflare.com/view/4F932C77F128223/72f8v.Timing.Belt.Diagnostic.Repair.and.Maintenance..AutoZone.DVD.part7.rar


Links are Interchangeable - No Password - Single Extraction
Direct Download

Tags: Timing, Diagnostic, Repair, Maintenance, AutoZone

Timing Belt Diagnostic, Repair and Maintenance - AutoZone DVD . from rapidshare mediafire megaupload hotfile, Timing Belt Diagnostic, Repair and Maintenance - AutoZone DVD . via torrent or emule, full free Timing Belt Diagnostic, Repair and Maintenance - AutoZone DVD ., Timing Belt Diagnostic, Repair and Maintenance - AutoZone DVD . rar zip password or anything related.

Comments:

Name:*
E-Mail:*
Add Comments:
Enter Code: *