Starting and Charging Diagnostic, Repair and Maintenance - AutoZone DVD .

Download Now

Starting and Charging Diagnostic, Repair and Maintenance - AutoZone DVD .

Starting and Charging: Diagnostic, Repair and Maintenance - AutoZone DVD
DVDRip | English | AVI | 640 x 464 | XviD ~1309 kbps | 29.970 fps
MP3 | 192 Kbps | 48.0 KHz | 2 channels | 00:13:27 | 145.6 MB
Genre: eLearning Video / Repair, Do-It-Yourself

Both novice and advanced do-it-yourselfers will gain valuable knowledge as they learn the steps the pros use to test and replace a vehicle's battery. One of the Autozone Complete Car Series of Videos, this information-packed DVD hosted by ASE-Certified Master Technician Bruce Bonebrake guides the viewer step-by-step through common automotive maintenance tasks in easy to understand segments. Learn what the numbers on a battery mean. Inspecting and testing a battery. Testing a charging system.

General
Complete name : Autozone starting and charging.avi
Format : AVI
Format/Info : Audio Video Interleave
File size : 146 MiB
Duration : 13mn 27s
Overall bit rate : 1 513 Kbps
Writing application : VirtualDubMod 1.5.10.2 (build 2540/release)
Writing library : VirtualDubMod build 2540/release

Video
ID : 0
Format : MPEG-4 Visual
Format profile : Advanced [email protected]
Format settings, BVOP : 2
Format settings, QPel : No
Format settings, GMC : No warppoints
Format settings, Matrix : Default (H.263)
Muxing mode : Packed bitstream
Codec ID : XVID
Codec ID/Hint : XviD
Duration : 13mn 27s
Bit rate : 1 309 Kbps
Width : 640 pixels
Height : 464 pixels
Display aspect ratio : 1.379
Frame rate : 29.970 fps
Color space : YUV
Chroma subsampling : 4:2:0
Bit depth : 8 bits
Scan type : Progressive
Compression mode : Lossy
Bits/(Pixel*Frame) : 0.147
Stream size : 126 MiB (87%)
Writing library : XviD 1.0.3 (UTC 2004-12-20)

Audio
ID : 1
Format : AC-3
Format/Info : Audio Coding 3
Mode extension : CM (complete main)
Codec ID : 2000
Duration : 13mn 27s
Bit rate mode : Constant
Bit rate : 192 Kbps
Channel(s) : 2 channels
Channel positions : Front: L R
Sampling rate : 48.0 KHz
Bit depth : 16 bits
Compression mode : Lossy
Stream size : 18.5 MiB (13%)
Alignment : Split accross interleaves
Interleave, duration : 33 ms (1.00 video frame)
Interleave, preload duration : 500 ms

Screenshots


Starting and Charging Diagnostic, Repair and Maintenance - AutoZone DVD .

Starting and Charging Diagnostic, Repair and Maintenance - AutoZone DVD .

Starting and Charging Diagnostic, Repair and Maintenance - AutoZone DVD .


Download link:



Links are Interchangeable - No Password - Single Extraction
Direct Download

Tags: Starting, Charging, Diagnostic, Repair, Maintenance, AutoZone

Starting and Charging Diagnostic, Repair and Maintenance - AutoZone DVD . from rapidshare mediafire megaupload hotfile, Starting and Charging Diagnostic, Repair and Maintenance - AutoZone DVD . via torrent or emule, full free Starting and Charging Diagnostic, Repair and Maintenance - AutoZone DVD ., Starting and Charging Diagnostic, Repair and Maintenance - AutoZone DVD . rar zip password or anything related.

Comments:

Name:*
E-Mail:*
Add Comments:
Enter Code: *