Shocks & Struts Diagnostic, Repair and Maintenance - AutoZone DVD .

Download Now

Shocks & Struts Diagnostic, Repair and Maintenance - AutoZone DVD .

Shocks & Struts: Diagnostic, Repair and Maintenance - AutoZone DVD
DVDRip | English | AVI | 640 x 464 | XviD ~1673 kbps | 29.970 fps
AC-3 | 192 Kbps | 48.0 KHz | 2 channels | 00:42:27 | 570 MB
Genre: eLearning Video / Car Repair, Do-It-Yourself

Both novice and advanced do-it-yourselfers will gain valuable knowledge as they learn the steps the pros use to replace defective shocks and struts. One of the Autozone Complete Car Series of Videos, this information-packed DVD hosted by ASE-Certified Master Technician Bruce Bonebrake guides the viewer step-by-step through common automotive maintenance tasks in easy to understand segments. Inspecting the suspension system. Installing new shock absorbers. Installing new struts.

General
Complete name : AutoZone Shocks and Struts.avi
Format : AVI
Format/Info : Audio Video Interleave
File size : 570 MiB
Duration : 42mn 27s
Overall bit rate : 1 877 Kbps
Writing application : VirtualDubMod 1.5.10.2 (build 2540/release)
Writing library : VirtualDubMod build 2540/release

Video
ID : 0
Format : MPEG-4 Visual
Format profile : Advanced [email protected]
Format settings, BVOP : 2
Format settings, QPel : No
Format settings, GMC : No warppoints
Format settings, Matrix : Default (H.263)
Muxing mode : Packed bitstream
Codec ID : XVID
Codec ID/Hint : XviD
Duration : 42mn 27s
Bit rate : 1 673 Kbps
Width : 640 pixels
Height : 464 pixels
Display aspect ratio : 1.379
Frame rate : 29.970 fps
Color space : YUV
Chroma subsampling : 4:2:0
Bit depth : 8 bits
Scan type : Progressive
Compression mode : Lossy
Bits/(Pixel*Frame) : 0.188
Stream size : 508 MiB (89%)
Writing library : XviD 1.0.3 (UTC 2004-12-20)

Audio
ID : 1
Format : AC-3
Format/Info : Audio Coding 3
Mode extension : CM (complete main)
Codec ID : 2000
Duration : 42mn 27s
Bit rate mode : Constant
Bit rate : 192 Kbps
Channel(s) : 2 channels
Channel positions : Front: L R
Sampling rate : 48.0 KHz
Bit depth : 16 bits
Compression mode : Lossy
Delay relative to video : 24ms
Stream size : 58.3 MiB (10%)
Alignment : Split accross interleaves
Interleave, duration : 33 ms (1.00 video frame)
Interleave, preload duration : 500 ms

Screenshots


Shocks & Struts Diagnostic, Repair and Maintenance - AutoZone DVD .

Shocks & Struts Diagnostic, Repair and Maintenance - AutoZone DVD .

Shocks & Struts Diagnostic, Repair and Maintenance - AutoZone DVD .


Download link:

uploadgig_com:
https://uploadgig.com/file/download/581a2a3D14bB56fb/vbpgh.Shocks..Struts.Diagnostic.Repair.and.Maintenance..AutoZone.DVD.part1.rar
https://uploadgig.com/file/download/a5a06b6f6cfc6528/vbpgh.Shocks..Struts.Diagnostic.Repair.and.Maintenance..AutoZone.DVD.part2.rar
https://uploadgig.com/file/download/cC93303AD6188a80/vbpgh.Shocks..Struts.Diagnostic.Repair.and.Maintenance..AutoZone.DVD.part3.rar
https://uploadgig.com/file/download/151d8140b42c1C01/vbpgh.Shocks..Struts.Diagnostic.Repair.and.Maintenance..AutoZone.DVD.part4.rar
https://uploadgig.com/file/download/8dfc199254e8C9b7/vbpgh.Shocks..Struts.Diagnostic.Repair.and.Maintenance..AutoZone.DVD.part5.rar
https://uploadgig.com/file/download/146FfF08cd3b93d3/vbpgh.Shocks..Struts.Diagnostic.Repair.and.Maintenance..AutoZone.DVD.part6.rar

rapidgator_net:
https://rapidgator.net/file/35e636b6234557244ee8df88d5a7aa4f/vbpgh.Shocks..Struts.Diagnostic.Repair.and.Maintenance..AutoZone.DVD.part1.rar.html
https://rapidgator.net/file/2c02acc63424e8f89d7d707ca047792c/vbpgh.Shocks..Struts.Diagnostic.Repair.and.Maintenance..AutoZone.DVD.part2.rar.html
https://rapidgator.net/file/cba9624d2ff9950698581f1874af64ae/vbpgh.Shocks..Struts.Diagnostic.Repair.and.Maintenance..AutoZone.DVD.part3.rar.html
https://rapidgator.net/file/ce809f204bfa3ef07254456db04ea092/vbpgh.Shocks..Struts.Diagnostic.Repair.and.Maintenance..AutoZone.DVD.part4.rar.html
https://rapidgator.net/file/fbbf37e7099aaa31d5bcc53cd88f7576/vbpgh.Shocks..Struts.Diagnostic.Repair.and.Maintenance..AutoZone.DVD.part5.rar.html
https://rapidgator.net/file/cd4e893bfc04638c1841bf94392cb44f/vbpgh.Shocks..Struts.Diagnostic.Repair.and.Maintenance..AutoZone.DVD.part6.rar.html

nitroflare_com:
http://nitroflare.com/view/7B3AF71FF1ECA7C/vbpgh.Shocks..Struts.Diagnostic.Repair.and.Maintenance..AutoZone.DVD.part1.rar
http://nitroflare.com/view/80D62076CA46E31/vbpgh.Shocks..Struts.Diagnostic.Repair.and.Maintenance..AutoZone.DVD.part2.rar
http://nitroflare.com/view/5CAF5BD9F14DF21/vbpgh.Shocks..Struts.Diagnostic.Repair.and.Maintenance..AutoZone.DVD.part3.rar
http://nitroflare.com/view/908F4B192B25D05/vbpgh.Shocks..Struts.Diagnostic.Repair.and.Maintenance..AutoZone.DVD.part4.rar
http://nitroflare.com/view/9097270EF3E4F33/vbpgh.Shocks..Struts.Diagnostic.Repair.and.Maintenance..AutoZone.DVD.part5.rar
http://nitroflare.com/view/D99E3E307828BB7/vbpgh.Shocks..Struts.Diagnostic.Repair.and.Maintenance..AutoZone.DVD.part6.rar


Links are Interchangeable - No Password - Single Extraction
Direct Download

Tags: Shocks, Struts, Diagnostic, Repair, Maintenance, AutoZone

Shocks & Struts Diagnostic, Repair and Maintenance - AutoZone DVD . from rapidshare mediafire megaupload hotfile, Shocks & Struts Diagnostic, Repair and Maintenance - AutoZone DVD . via torrent or emule, full free Shocks & Struts Diagnostic, Repair and Maintenance - AutoZone DVD ., Shocks & Struts Diagnostic, Repair and Maintenance - AutoZone DVD . rar zip password or anything related.

Comments:

Name:*
E-Mail:*
Add Comments:
Enter Code: *