Brake Job Diagnostic, Repair and Maintenance - AutoZone DVD .

Download Now

Brake Job Diagnostic, Repair and Maintenance - AutoZone DVD .

Brake Job: Diagnostic, Repair and Maintenance - AutoZone DVD
DVDRip | English | AVI | 640 x 464 | XviD ~1378 kbps | 29.970 fps
AC-3 | 192 Kbps | 48.0 KHz | 2 channels | ~1 hour | 679 MB
Genre: eLearning Video / Car Repair, Do-It-Yourself

Both novice and advanced Do-It-Yourselfers will gain valuable knowledge as they learn the steps the pros use to maintain a vehicle's brakes. One of the Autozone Complete Car Series of Videos, this information-packed DVD hosted by ASE-Certified Master Technician Bruce Bonebrake guides the viewer step-by-step through common automotive maintenance tasks in easy to understand segments. Identify brake components. Inspecting and cleaning. Install new pads and rotors.

General
Complete name : Autozone brake job.avi
Format : AVI
Format/Info : Audio Video Interleave
File size : 680 MiB
Duration : 1h 0mn
Overall bit rate : 1 581 Kbps
Writing application : VirtualDubMod 1.5.10.2 (build 2540/release)
Writing library : VirtualDubMod build 2540/release

Video
ID : 0
Format : MPEG-4 Visual
Format profile : Advanced [email protected]
Format settings, BVOP : 2
Format settings, QPel : No
Format settings, GMC : No warppoints
Format settings, Matrix : Default (H.263)
Muxing mode : Packed bitstream
Codec ID : XVID
Codec ID/Hint : XviD
Duration : 1h 0mn
Bit rate : 1 378 Kbps
Width : 640 pixels
Height : 464 pixels
Display aspect ratio : 1.379
Frame rate : 29.970 fps
Color space : YUV
Chroma subsampling : 4:2:0
Bit depth : 8 bits
Scan type : Progressive
Compression mode : Lossy
Bits/(Pixel*Frame) : 0.155
Stream size : 592 MiB (87%)
Writing library : XviD 1.0.3 (UTC 2004-12-20)

Audio
ID : 1
Format : AC-3
Format/Info : Audio Coding 3
Mode extension : CM (complete main)
Codec ID : 2000
Duration : 1h 0mn
Bit rate mode : Constant
Bit rate : 192 Kbps
Channel(s) : 2 channels
Channel positions : Front: L R
Sampling rate : 48.0 KHz
Bit depth : 16 bits
Compression mode : Lossy
Stream size : 82.5 MiB (12%)
Alignment : Split accross interleaves
Interleave, duration : 33 ms (1.00 video frame)
Interleave, preload duration : 500 ms

Screenshots


Brake Job Diagnostic, Repair and Maintenance - AutoZone DVD .

Brake Job Diagnostic, Repair and Maintenance - AutoZone DVD .

Brake Job Diagnostic, Repair and Maintenance - AutoZone DVD .


Download link:

uploadgig_com:
https://uploadgig.com/file/download/8F890e77ee2a3Ab7/5xgxs.Brake.Job.Diagnostic.Repair.and.Maintenance..AutoZone.DVD.part1.rar
https://uploadgig.com/file/download/4c9419f31bAec0c0/5xgxs.Brake.Job.Diagnostic.Repair.and.Maintenance..AutoZone.DVD.part2.rar
https://uploadgig.com/file/download/81d0Feab38a39fAE/5xgxs.Brake.Job.Diagnostic.Repair.and.Maintenance..AutoZone.DVD.part3.rar
https://uploadgig.com/file/download/de5EE6e3eB8d3636/5xgxs.Brake.Job.Diagnostic.Repair.and.Maintenance..AutoZone.DVD.part4.rar
https://uploadgig.com/file/download/91B3A37628a16f9b/5xgxs.Brake.Job.Diagnostic.Repair.and.Maintenance..AutoZone.DVD.part5.rar
https://uploadgig.com/file/download/b08Ba9D8f334d2C6/5xgxs.Brake.Job.Diagnostic.Repair.and.Maintenance..AutoZone.DVD.part6.rar
https://uploadgig.com/file/download/e17BaFf2eecB017e/5xgxs.Brake.Job.Diagnostic.Repair.and.Maintenance..AutoZone.DVD.part7.rar

rapidgator_net:
https://rapidgator.net/file/aadfb8816e6fcdd9e526dc34bb553df4/5xgxs.Brake.Job.Diagnostic.Repair.and.Maintenance..AutoZone.DVD.part1.rar.html
https://rapidgator.net/file/8d941a11f3502e3d306e07afb3fbdeb3/5xgxs.Brake.Job.Diagnostic.Repair.and.Maintenance..AutoZone.DVD.part2.rar.html
https://rapidgator.net/file/49a7fc44c2a5cae6d64b6eb35827748d/5xgxs.Brake.Job.Diagnostic.Repair.and.Maintenance..AutoZone.DVD.part3.rar.html
https://rapidgator.net/file/0325860b0968ee113015cb7626aa7fd8/5xgxs.Brake.Job.Diagnostic.Repair.and.Maintenance..AutoZone.DVD.part4.rar.html
https://rapidgator.net/file/110be5be4a30ed4f079944c76c7214cf/5xgxs.Brake.Job.Diagnostic.Repair.and.Maintenance..AutoZone.DVD.part5.rar.html
https://rapidgator.net/file/8f5749a7f55d3ea9b707cf460ed0ce20/5xgxs.Brake.Job.Diagnostic.Repair.and.Maintenance..AutoZone.DVD.part6.rar.html
https://rapidgator.net/file/70aa71aeafefe1cb9a28702f3f3ba070/5xgxs.Brake.Job.Diagnostic.Repair.and.Maintenance..AutoZone.DVD.part7.rar.html

nitroflare_com:
http://nitroflare.com/view/AFD6BBC854641A9/5xgxs.Brake.Job.Diagnostic.Repair.and.Maintenance..AutoZone.DVD.part1.rar
http://nitroflare.com/view/615DD4F6DAF8665/5xgxs.Brake.Job.Diagnostic.Repair.and.Maintenance..AutoZone.DVD.part2.rar
http://nitroflare.com/view/AE982D1634D9A05/5xgxs.Brake.Job.Diagnostic.Repair.and.Maintenance..AutoZone.DVD.part3.rar
http://nitroflare.com/view/CE6845148EA3D92/5xgxs.Brake.Job.Diagnostic.Repair.and.Maintenance..AutoZone.DVD.part4.rar
http://nitroflare.com/view/4ED1D30E368EFBC/5xgxs.Brake.Job.Diagnostic.Repair.and.Maintenance..AutoZone.DVD.part5.rar
http://nitroflare.com/view/102164BB6503C3C/5xgxs.Brake.Job.Diagnostic.Repair.and.Maintenance..AutoZone.DVD.part6.rar
http://nitroflare.com/view/1E7E9446F4B4B56/5xgxs.Brake.Job.Diagnostic.Repair.and.Maintenance..AutoZone.DVD.part7.rar


Links are Interchangeable - No Password - Single Extraction
Direct Download

Tags: Diagnostic, Repair, Maintenance, AutoZone

Brake Job Diagnostic, Repair and Maintenance - AutoZone DVD . from rapidshare mediafire megaupload hotfile, Brake Job Diagnostic, Repair and Maintenance - AutoZone DVD . via torrent or emule, full free Brake Job Diagnostic, Repair and Maintenance - AutoZone DVD ., Brake Job Diagnostic, Repair and Maintenance - AutoZone DVD . rar zip password or anything related.

Comments:

Name:*
E-Mail:*
Add Comments:
Enter Code: *