Lick Library Classic Albums Metallica - The Black Album .

Download Now

Lick Library Classic Albums Metallica - The Black Album .

Lick Library: Classic Albums Metallica - The Black Album
WEBRip | English | MP4 | 1920 x 1080 | AVC ~1400 kbps | 25 fps
AAC 128 Kbps 48.0 KHz | 2 channels | 05:45:23 | 3.81 GB
Genre: eLearning Video / Guitar lesson

Metallica's eponymously titled fifth studio album, more commonly known as 'The Black Album', is the heavy metal giant's best-selling album to date and it's no surprise. The Black Album produced five singles that are among the band's best-known songs, including Enter Sandman, Sad But True, Nothing Else Matters, Wherever I May Roam and The Unforgiven.

The album marks a change in Metallica's direction from the early thrash metal roots of the band's previous four studio albums towards a more commercial, heavy metal sound, that helped the record début at number one on the Billboard 200.

Jamie Humphries shows you how James Hetfield and Kirk Hammett use multiple parts, powerful riffs, and blistering solos to create the songs that have helped make 1991's The Black Album a classic album.

Learn to play the following:

Enter Sandman
Sad but True
Holier Than Thou
The Unforgiven
Wherever I May Roam
Don't Tread on Me
Through the Never
Nothing Else Matters
Of Wolf and Man
My Friend Of Misery
The Struggle Within

General
Complete name : 01_Rhythm Parts & Melody.mp4
Format : MPEG-4
Codec ID : M4V (isom/avc1/iso6/M4A /M4V /mp42)
File size : 131 MiB
Duration : 11 min 57 s
Overall bit rate mode : Variable
Overall bit rate : 1 533 kb/s
Encoded date : UTC 2017-09-21 15:31:51
Tagged date : UTC 2017-09-21 15:31:51

Video
ID : 1
Format : AVC
Format/Info : Advanced Video Codec
Format profile : [email protected]
Format settings : CABAC / 4 Ref Frames
Format settings, CABAC : Yes
Format settings, RefFrames : 4 frames
Codec ID : avc1
Codec ID/Info : Advanced Video Coding
Duration : 11 min 57 s
Bit rate : 1 400 kb/s
Maximum bit rate : 2 807 kb/s
Width : 1 920 pixels
Height : 1 080 pixels
Display aspect ratio : 16:9
Frame rate mode : Constant
Frame rate : 25.000 FPS
Color space : YUV
Chroma subsampling : 4:2:0
Bit depth : 8 bits
Scan type : Progressive
Bits/(Pixel*Frame) : 0.027
Stream size : 120 MiB (91%)
Writing library : x264 core 148 r2744kMod b97ae06
Encoding settings : cabac=1 / ref=4 / deblock=1:0:0 / analyse=0x3:0x113 / me=hex / subme=8 / psy=1 / fade_compensate=0.00 / psy_rd=1.00:0.00 / mixed_ref=1 / me_range=16 / chroma_me=1 / trellis=2 / 8x8dct=1 / cqm=0 / deadzone=21,11 / fast_pskip=1 / chroma_qp_offset=-2 / threads=12 / lookahead_threads=2 / sliced_threads=0 / nr=0 / decimate=1 / interlaced=0 / bluray_compat=0 / constrained_intra=0 / bframes=3 / b_pyramid=2 / b_adapt=1 / b_bias=0 / direct=3 / weightb=1 / open_gop=0 / weightp=2 / keyint=250 / keyint_min=25 / scenecut=40 / intra_refresh=0 / rc_lookahead=50 / rc=2pass / mbtree=1 / bitrate=1400 / ratetol=1.0 / qcomp=0.60 / qpmin=0 / qpmax=69 / qpstep=4 / cplxblur=20.0 / qblur=0.5 / ip_ratio=1.40 / aq=1:1.00
Encoded date : UTC 2017-09-21 15:31:51
Tagged date : UTC 2017-09-21 15:31:52

Audio
ID : 2
Format : AAC
Format/Info : Advanced Audio Codec
Format profile : LC
Codec ID : mp4a-40-2
Duration : 11 min 57 s
Bit rate mode : Variable
Bit rate : 128 kb/s
Maximum bit rate : 142 kb/s
Channel(s) : 2 channels
Channel positions : Front: L R
Sampling rate : 48.0 kHz
Frame rate : 46.875 FPS (1024 SPF)
Compression mode : Lossy
Stream size : 10.9 MiB (8%)
Encoded date : UTC 2017-09-21 15:23:07
Tagged date : UTC 2017-09-21 15:31:52

Screenshots


Lick Library Classic Albums Metallica - The Black Album .

Lick Library Classic Albums Metallica - The Black Album .

Lick Library Classic Albums Metallica - The Black Album .


Download link:

uploadgig_com:
https://uploadgig.com/file/download/7cca60640318163d/j7crc.Lick.Library.Classic.Albums.Metallica..The.Black.Album.part1.rar
https://uploadgig.com/file/download/fE4bdF971f89a01d/j7crc.Lick.Library.Classic.Albums.Metallica..The.Black.Album.part2.rar
https://uploadgig.com/file/download/f8f3F7EeA67d231a/j7crc.Lick.Library.Classic.Albums.Metallica..The.Black.Album.part3.rar
https://uploadgig.com/file/download/5BC3974cb5280662/j7crc.Lick.Library.Classic.Albums.Metallica..The.Black.Album.part4.rar
https://uploadgig.com/file/download/9115356ad1dC7de8/j7crc.Lick.Library.Classic.Albums.Metallica..The.Black.Album.part5.rar
https://uploadgig.com/file/download/19f1Ad7aA5371E6e/j7crc.Lick.Library.Classic.Albums.Metallica..The.Black.Album.part6.rar
https://uploadgig.com/file/download/812Cc953b75E804A/j7crc.Lick.Library.Classic.Albums.Metallica..The.Black.Album.part7.rar
https://uploadgig.com/file/download/46cc833930D16f3a/j7crc.Lick.Library.Classic.Albums.Metallica..The.Black.Album.part8.rar

rapidgator_net:
https://rapidgator.net/file/8011c735b5f399be3a9f190419b85b09/j7crc.Lick.Library.Classic.Albums.Metallica..The.Black.Album.part1.rar.html
https://rapidgator.net/file/6ca57ed161ff28ea40e12e706e03ca0e/j7crc.Lick.Library.Classic.Albums.Metallica..The.Black.Album.part2.rar.html
https://rapidgator.net/file/d52195fa52fedc818e4b25090f357dea/j7crc.Lick.Library.Classic.Albums.Metallica..The.Black.Album.part3.rar.html
https://rapidgator.net/file/1df4d03324e5e93a56c32d9bfbfb24d3/j7crc.Lick.Library.Classic.Albums.Metallica..The.Black.Album.part4.rar.html
https://rapidgator.net/file/728cf7012115448b964b2cdf39d0bc56/j7crc.Lick.Library.Classic.Albums.Metallica..The.Black.Album.part5.rar.html
https://rapidgator.net/file/8a8e714c799b67d5001340c333017783/j7crc.Lick.Library.Classic.Albums.Metallica..The.Black.Album.part6.rar.html
https://rapidgator.net/file/25bd9cb3a73243efd7e69e6744a243ff/j7crc.Lick.Library.Classic.Albums.Metallica..The.Black.Album.part7.rar.html
https://rapidgator.net/file/0491fd37e11ebeb59d6ffd3df1eca737/j7crc.Lick.Library.Classic.Albums.Metallica..The.Black.Album.part8.rar.html

nitroflare_com:
http://nitroflare.com/view/1DA4A5F31D2EDF0/j7crc.Lick.Library.Classic.Albums.Metallica..The.Black.Album.part1.rar
http://nitroflare.com/view/3F2795BD389CC0B/j7crc.Lick.Library.Classic.Albums.Metallica..The.Black.Album.part2.rar
http://nitroflare.com/view/66A187EE2A9A1A4/j7crc.Lick.Library.Classic.Albums.Metallica..The.Black.Album.part3.rar
http://nitroflare.com/view/7367681A37D4BD2/j7crc.Lick.Library.Classic.Albums.Metallica..The.Black.Album.part4.rar
http://nitroflare.com/view/E6E0EF226386FF0/j7crc.Lick.Library.Classic.Albums.Metallica..The.Black.Album.part5.rar
http://nitroflare.com/view/6F9A95A3A174D8D/j7crc.Lick.Library.Classic.Albums.Metallica..The.Black.Album.part6.rar
http://nitroflare.com/view/5E3169009A2CB7E/j7crc.Lick.Library.Classic.Albums.Metallica..The.Black.Album.part7.rar
http://nitroflare.com/view/4B7A73B7BD611C3/j7crc.Lick.Library.Classic.Albums.Metallica..The.Black.Album.part8.rar


Links are Interchangeable - No Password - Single Extraction
Direct Download

Tags: Library, Classic, Albums, Metallica

Lick Library Classic Albums Metallica - The Black Album . from rapidshare mediafire megaupload hotfile, Lick Library Classic Albums Metallica - The Black Album . via torrent or emule, full free Lick Library Classic Albums Metallica - The Black Album ., Lick Library Classic Albums Metallica - The Black Album . rar zip password or anything related.

Comments:

Name:*
E-Mail:*
Add Comments:
Enter Code: *