Tiling Projects 1-2-3 .

Download Now

Tiling Projects 1-2-3 .

Tiling Projects 1-2-3
DVDRip | English | AVI | 640 x 352 | XviD ~2412 Kbps | 29.970 fps
AC-3 | 192 Kbps | 48.0 KHz | 2 channels | 01:04:52 | 1.27 GB
Genre: eLearning Video / Homebuilding, Repair
Whether the project involves Tiling a Bathroom wall and Floor, Kitchen Floor or Counter top with a sink, you will find step-by step instructions and expert advice.


General
Complete name : TILING_PROJECTS_1_2_3.avi
Format : AVI
Format/Info : Audio Video Interleave
File size : 1.27 GiB
Duration : 1h 4mn
Overall bit rate : 2 813 Kbps
Writing application : VirtualDubMod 1.5.10.2 (build 2540/release)
Writing library : VirtualDubMod build 2540/release

Video
ID : 0
Format : MPEG-4 Visual
Format profile : Advanced [email protected]
Format settings, BVOP : 2
Format settings, QPel : No
Format settings, GMC : No warppoints
Format settings, Matrix : Default (H.263)
Muxing mode : Packed bitstream
Codec ID : XVID
Codec ID/Hint : XviD
Duration : 1h 4mn
Bit rate : 2 412 Kbps
Width : 640 pixels
Height : 352 pixels
Display aspect ratio : 16:9
Frame rate : 29.970 fps
Color space : YUV
Chroma subsampling : 4:2:0
Bit depth : 8 bits
Scan type : Progressive
Compression mode : Lossy
Bits/(Pixel*Frame) : 0.357
Stream size : 1.09 GiB (86%)
Writing library : XviD 1.2.0.dev47 (UTC 2006-11-01)

Audio #1
ID : 1
Format : AC-3
Format/Info : Audio Coding 3
Mode extension : CM (complete main)
Codec ID : 2000
Duration : 1h 4mn
Bit rate mode : Constant
Bit rate : 192 Kbps
Channel(s) : 2 channels
Channel positions : Front: L R
Sampling rate : 48.0 KHz
Bit depth : 16 bits
Compression mode : Lossy
Stream size : 89.0 MiB (7%)
Alignment : Split accross interleaves
Interleave, duration : 33 ms (1.00 video frame)
Interleave, preload duration : 500 ms

Audio #2
ID : 2
Format : AC-3
Format/Info : Audio Coding 3
Mode extension : CM (complete main)
Codec ID : 2000
Duration : 1h 4mn
Bit rate mode : Constant
Bit rate : 192 Kbps
Channel(s) : 2 channels
Channel positions : Front: L R
Sampling rate : 48.0 KHz
Bit depth : 16 bits
Compression mode : Lossy
Stream size : 89.0 MiB (7%)
Alignment : Split accross interleaves
Interleave, duration : 33 ms (1.00 video frame)
Interleave, preload duration : 500 ms

Screenshots


Tiling Projects 1-2-3 .

Tiling Projects 1-2-3 .

Tiling Projects 1-2-3 .


Download link:



Links are Interchangeable - No Password - Single Extraction
Direct Download

Tags: Tiling, Projects

Tiling Projects 1-2-3 . from rapidshare mediafire megaupload hotfile, Tiling Projects 1-2-3 . via torrent or emule, full free Tiling Projects 1-2-3 ., Tiling Projects 1-2-3 . rar zip password or anything related.

Comments:

Name:*
E-Mail:*
Add Comments:
Enter Code: *