Drywall Hanging and Taping on DVD .

Download Now

Drywall Hanging and Taping on DVD .

Drywall: Hanging and Taping on DVD with Myron Ferguson
DVDRip | English | AVI | 720 x 480 | XviD ~681 kbps | 29.970 fps
PCM | 1411 Kbps | 44.1 KHz | 2 channels | 00:58:47 | 884.6 MB
Genre: eLearning Video / Homebuilding, Repair
Learn Techniques for Smooth Walls and Ceilings. For any drywall project, this is a must have!


Here's your chance to watch an experienced pro at work and to learn all the tricks and techniques he uses to create smooth, unblemished walls and ceilings. Veteran drywaller Myron Ferguson shows you how to:take the right measurements and estimate materialscut and hang panels efficiently, even when the framing is out of whackhandle everything from simple walls to cathedral ceilings, curved walls and archwaystape and finish drywall with a minimum of sandingsand and prepare walls for paintcorrect mistakes and make repairs

General
Complete name : Drywall Hanging and Taping DVD.avi
Format : AVI
Format/Info : Audio Video Interleave
File size : 885 MiB
Duration : 58mn 47s
Overall bit rate : 2 104 Kbps

Video
ID : 1
Format : MPEG-4 Visual
Format settings, BVOP : 1
Format settings, QPel : No
Format settings, GMC : No warppoints
Format settings, Matrix : Default (H.263)
Muxing mode : Packed bitstream
Codec ID : DX50
Codec ID/Hint : DivX 5
Duration : 58mn 47s
Bit rate : 681 Kbps
Width : 720 pixels
Height : 480 pixels
Display aspect ratio : 3:2
Frame rate : 29.970 fps
Standard : NTSC
Color space : YUV
Chroma subsampling : 4:2:0
Bit depth : 8 bits
Scan type : Progressive
Compression mode : Lossy
Bits/(Pixel*Frame) : 0.066
Stream size : 286 MiB (32%)
Writing library : DivX 6.7.0 (UTC 2007-09-20)

Audio
ID : 0
Format : PCM
Format settings, Endianness : Little
Format settings, Sign : Signed
Codec ID : 1
Duration : 58mn 47s
Bit rate mode : Constant
Bit rate : 1 411.2 Kbps
Channel(s) : 2 channels
Sampling rate : 44.1 KHz
Bit depth : 16 bits
Stream size : 593 MiB (67%)
Interleave, duration : 33 ms (1.00 video frame)

Screenshots


Drywall Hanging and Taping on DVD .

Drywall Hanging and Taping on DVD .

Drywall Hanging and Taping on DVD .


Download link:



Links are Interchangeable - No Password - Single Extraction
Direct Download

Tags: Drywall, Hanging, Taping

Drywall Hanging and Taping on DVD . from rapidshare mediafire megaupload hotfile, Drywall Hanging and Taping on DVD . via torrent or emule, full free Drywall Hanging and Taping on DVD ., Drywall Hanging and Taping on DVD . rar zip password or anything related.

Comments:

Name:*
E-Mail:*
Add Comments:
Enter Code: *