Guitar World - In Deep with the Major-Minor Modes .

Download Now

Guitar World - In Deep with the Major-Minor Modes .

Guitar World - In Deep with the Major-Minor Modes
WEBRip | English | MP4 + PDF Guides | 720 x 406 | AVC ~738 kbps | 23.976 fps
AAC 138 Kbps 48.0 KHz | 2 channels | ~100 min | 3.96 GB
Genre: eLearning Video / Guitar lesson


In Deep With the Minor/Major Modes - DVD

In Deep with the Minor Modes, the latest in Andy Aledort's In Deep instructional DVD series, and the follow up to In Deep with the Major Modes, includes over 60 minutes of instruction!

In this DVD you'll learn:

The seven fundamental modes
How to harmonize scales and modes with chords
How to apply modes to chord progressions
Soloing with the Dorian, Aeolian, Phrygian and Locrian modes
How to transpose modes to different keys
Pentatonic superimpositions
And much more!

In Deep With the Major Modes - DVD

The latest in Andy Aledort's In Deep instructional DVD series, In Deep with the Major Modes includes over 100 minutes of instruction!

In this DVD you'll learn:

Ionian, Lydian and Mixolydian modes.
Essential fingering patterns and keys.
How to create licks from scale patterns.
Major pentatonic and hexatonic scales.
Blues soloing using thirds and sixths
Hybrid-dominant scales
And much more!

General
Complete name : Chapter 3 The A Major and E Major Hexatonic Scales.mp4
Format : MPEG-4
Format profile : Base Media / Version 2
Codec ID : mp42 (isom/iso2/avc1/mp41)
File size : 114 MiB
Duration : 18 min 0 s
Overall bit rate mode : Variable
Overall bit rate : 882 kb/s
Writing application : HandBrake 0.10.0 2014112200

Video
ID : 1
Format : AVC
Format/Info : Advanced Video Codec
Format profile : [email protected]
Format settings : CABAC / 4 Ref Frames
Format settings, CABAC : Yes
Format settings, RefFrames : 4 frames
Codec ID : avc1
Codec ID/Info : Advanced Video Coding
Duration : 18 min 0 s
Bit rate : 738 kb/s
Width : 720 pixels
Height : 406 pixels
Display aspect ratio : 16:9
Frame rate mode : Variable
Frame rate : 23.976 (24000/1001) FPS
Minimum frame rate : 23.974 FPS
Maximum frame rate : 23.981 FPS
Color space : YUV
Chroma subsampling : 4:2:0
Bit depth : 8 bits
Scan type : Progressive
Bits/(Pixel*Frame) : 0.105
Stream size : 95.0 MiB (84%)
Writing library : x264 core 142 r2479 dd79a61
Encoding settings : cabac=1 / ref=1 / deblock=1:0:0 / analyse=0x1:0x111 / me=hex / subme=2 / psy=1 / psy_rd=1.00:0.00 / mixed_ref=0 / me_range=16 / chroma_me=1 / trellis=0 / 8x8dct=0 / cqm=0 / deadzone=21,11 / fast_pskip=1 / chroma_qp_offset=0 / threads=12 / lookahead_threads=3 / sliced_threads=0 / nr=0 / decimate=1 / interlaced=0 / bluray_compat=0 / constrained_intra=0 / bframes=3 / b_pyramid=2 / b_adapt=1 / b_bias=0 / direct=1 / weightb=1 / open_gop=0 / weightp=1 / keyint=240 / keyint_min=24 / scenecut=40 / intra_refresh=0 / rc_lookahead=10 / rc=crf / mbtree=1 / crf=20.0 / qcomp=0.60 / qpmin=0 / qpmax=69 / qpstep=4 / vbv_maxrate=20000 / vbv_bufsize=25000 / crf_max=0.0 / nal_hrd=none / filler=0 / ip_ratio=1.40 / aq=1:1.00
Color range : Limited
Color primaries : BT.601 NTSC
Transfer characteristics : BT.709
Matrix coefficients : BT.601

Audio
ID : 2
Format : AAC
Format/Info : Advanced Audio Codec
Format profile : LC
Codec ID : mp4a-40-2
Duration : 18 min 0 s
Bit rate mode : Variable
Bit rate : 138 kb/s
Channel(s) : 2 channels
Channel positions : Front: L R
Sampling rate : 48.0 kHz
Frame rate : 46.875 FPS (1024 SPF)
Compression mode : Lossy
Stream size : 17.7 MiB (16%)
Title : Stereo / Stereo
Language : English
Default : Yes
Alternate group : 1

Screenshots


Guitar World - In Deep with the Major-Minor Modes .

Guitar World - In Deep with the Major-Minor Modes .

Guitar World - In Deep with the Major-Minor Modes .


Download link:

uploadgig_com:
https://uploadgig.com/file/download/b47bdc625BF00d59/ho3hd.Guitar.World..In.Deep.with.the.MajorMinor.Modes.part01.rar
https://uploadgig.com/file/download/8324868d0F9Ba5a6/ho3hd.Guitar.World..In.Deep.with.the.MajorMinor.Modes.part02.rar
https://uploadgig.com/file/download/E7cE3dCde8e21173/ho3hd.Guitar.World..In.Deep.with.the.MajorMinor.Modes.part03.rar
https://uploadgig.com/file/download/70d22d3dD1E633eE/ho3hd.Guitar.World..In.Deep.with.the.MajorMinor.Modes.part04.rar
https://uploadgig.com/file/download/783e3C7049bb70B4/ho3hd.Guitar.World..In.Deep.with.the.MajorMinor.Modes.part05.rar
https://uploadgig.com/file/download/a231839686Fb13c7/ho3hd.Guitar.World..In.Deep.with.the.MajorMinor.Modes.part06.rar
https://uploadgig.com/file/download/bbdf7fa88e5D36e7/ho3hd.Guitar.World..In.Deep.with.the.MajorMinor.Modes.part07.rar
https://uploadgig.com/file/download/13087808baED9728/ho3hd.Guitar.World..In.Deep.with.the.MajorMinor.Modes.part08.rar
https://uploadgig.com/file/download/0c45f5Ccddb64972/ho3hd.Guitar.World..In.Deep.with.the.MajorMinor.Modes.part09.rar

rapidgator_net:
https://rapidgator.net/file/960eb500b4317aeababf08e8728c32ec/ho3hd.Guitar.World..In.Deep.with.the.MajorMinor.Modes.part01.rar.html
https://rapidgator.net/file/724b39adbea2f7a5822ddfe53a19d578/ho3hd.Guitar.World..In.Deep.with.the.MajorMinor.Modes.part02.rar.html
https://rapidgator.net/file/92bdfb91720bdd7c1163edb7f79f2879/ho3hd.Guitar.World..In.Deep.with.the.MajorMinor.Modes.part03.rar.html
https://rapidgator.net/file/75cc3e7112e2a6881e3a18ed623a742c/ho3hd.Guitar.World..In.Deep.with.the.MajorMinor.Modes.part04.rar.html
https://rapidgator.net/file/d86498d35da0755f08e53bd506c18bb1/ho3hd.Guitar.World..In.Deep.with.the.MajorMinor.Modes.part05.rar.html
https://rapidgator.net/file/7857bf0dcbdcfdbc27564198a5fdd4ee/ho3hd.Guitar.World..In.Deep.with.the.MajorMinor.Modes.part06.rar.html
https://rapidgator.net/file/f683d01c75e422ff7671b904bd2e17a7/ho3hd.Guitar.World..In.Deep.with.the.MajorMinor.Modes.part07.rar.html
https://rapidgator.net/file/e5c83b4853d8527ab48c53bfd06e24c0/ho3hd.Guitar.World..In.Deep.with.the.MajorMinor.Modes.part08.rar.html
https://rapidgator.net/file/86cdb27b8e56522df09c6d16d633aec8/ho3hd.Guitar.World..In.Deep.with.the.MajorMinor.Modes.part09.rar.html

nitroflare_com:
http://nitroflare.com/view/AAEE93EE6D28D5E/ho3hd.Guitar.World..In.Deep.with.the.MajorMinor.Modes.part01.rar
http://nitroflare.com/view/F01E3A3E5A81808/ho3hd.Guitar.World..In.Deep.with.the.MajorMinor.Modes.part02.rar
http://nitroflare.com/view/6F68319CB7893E5/ho3hd.Guitar.World..In.Deep.with.the.MajorMinor.Modes.part03.rar
http://nitroflare.com/view/CF56BAE62D1BC33/ho3hd.Guitar.World..In.Deep.with.the.MajorMinor.Modes.part04.rar
http://nitroflare.com/view/ABE4AD7120E9CA5/ho3hd.Guitar.World..In.Deep.with.the.MajorMinor.Modes.part05.rar
http://nitroflare.com/view/D4DEF5BBE942873/ho3hd.Guitar.World..In.Deep.with.the.MajorMinor.Modes.part06.rar
http://nitroflare.com/view/CBB5AF4327D75C1/ho3hd.Guitar.World..In.Deep.with.the.MajorMinor.Modes.part07.rar
http://nitroflare.com/view/EA5CA98CB2F6DE3/ho3hd.Guitar.World..In.Deep.with.the.MajorMinor.Modes.part08.rar
http://nitroflare.com/view/3C0A1794CF85569/ho3hd.Guitar.World..In.Deep.with.the.MajorMinor.Modes.part09.rar


Links are Interchangeable - No Password - Single Extraction
Direct Download

Tags: Guitar

Guitar World - In Deep with the Major-Minor Modes . from rapidshare mediafire megaupload hotfile, Guitar World - In Deep with the Major-Minor Modes . via torrent or emule, full free Guitar World - In Deep with the Major-Minor Modes ., Guitar World - In Deep with the Major-Minor Modes . rar zip password or anything related.

Comments:

Name:*
E-Mail:*
Add Comments:
Enter Code: *