Coursera - Natural Language Processing (Columbia University) .

Download Now

Coursera - Natural Language Processing (Columbia University) .

Coursera - Natural Language Processing (Columbia University)
WEBRip | English | MP4 + PDF slides | 960 x 540 | AVC ~42.6 kbps | 29.970 fps
AAC | 128 Kbps | 44.1 KHz | 2 channels | Subs: English (.srt) | ~17 hours | 1.13 GB
Genre: eLearning Video / Engineering, Linguistics, NLP

Natural language processing (NLP) deals with the application of computational models to text or speech data. Application areas within NLP include automatic (machine) translation between languages; dialogue systems, which allow a human to interact with a machine using natural language; and information extraction, where the goal is to transform unstructured text into structured (database) representations that can be searched and browsed in flexible ways.

NLP technologies are having a dramatic impact on the way people interact with computers, on the way people interact with each other through the use of language, and on the way people access the vast amount of linguistic data now in electronic form. From a scientific viewpoint, NLP involves fundamental questions of how to structure formal models (for example statistical models) of natural language phenomena, and of how to design algorithms that implement these models.

In this course you will study mathematical and computational models of language, and the application of these models to key problems in natural language processing. The course has a focus on machine learning methods, which are widely used in modern NLP systems: we will cover formalisms such as hidden Markov models, probabilistic context-free grammars, log-linear models, and statistical models for machine translation. The curriculum closely follows a course currently taught by Professor Collins at Columbia University, and previously taught at MIT.

Syllabus
Topics covered include:

1. Language modeling.
2. Hidden Markov models, and tagging problems.
3. Probabilistic context-free grammars, and the parsing problem.
4. Statistical approaches to machine translation.
5. Log-linear models, and their application to NLP problems.
6. Unsupervised and semi-supervised learning in NLP.

Taught by Michael Collins

General
Complete name : 03_Basics_of_PCFGs_Part_2_8-26.mp4
Format : MPEG-4
Format profile : Base Media
Codec ID : isom (isom/iso2/avc1/mp41)
File size : 10.8 MiB
Duration : 8 min 26 s
Overall bit rate : 179 kb/s
Encoded date : UTC 1970-01-01 00:00:00
Tagged date : UTC 1970-01-01 00:00:00
Writing application : Lavf53.29.100

Video
ID : 1
Format : AVC
Format/Info : Advanced Video Codec
Format profile : [email protected]
Format settings : CABAC / 4 Ref Frames
Format settings, CABAC : Yes
Format settings, RefFrames : 4 frames
Codec ID : avc1
Codec ID/Info : Advanced Video Coding
Duration : 8 min 26 s
Bit rate : 42.6 kb/s
Width : 960 pixels
Height : 540 pixels
Display aspect ratio : 16:9
Frame rate mode : Constant
Frame rate : 29.970 (30000/1001) FPS
Color space : YUV
Chroma subsampling : 4:2:0
Bit depth : 8 bits
Scan type : Progressive
Bits/(Pixel*Frame) : 0.003
Stream size : 2.57 MiB (24%)
Writing library : x264 core 120 r2120 0c7dab9
Encoding settings : cabac=1 / ref=3 / deblock=1:0:0 / analyse=0x3:0x113 / me=hex / subme=7 / psy=1 / psy_rd=1.00:0.00 / mixed_ref=1 / me_range=16 / chroma_me=1 / trellis=1 / 8x8dct=1 / cqm=0 / deadzone=21,11 / fast_pskip=1 / chroma_qp_offset=-2 / threads=12 / sliced_threads=0 / nr=0 / decimate=1 / interlaced=0 / bluray_compat=0 / constrained_intra=0 / bframes=3 / b_pyramid=2 / b_adapt=1 / b_bias=0 / direct=1 / weightb=1 / open_gop=0 / weightp=2 / keyint=250 / keyint_min=25 / scenecut=40 / intra_refresh=0 / rc_lookahead=40 / rc=crf / mbtree=1 / crf=28.0 / qcomp=0.60 / qpmin=0 / qpmax=69 / qpstep=4 / ip_ratio=1.40 / aq=1:1.00
Encoded date : UTC 1970-01-01 00:00:00
Tagged date : UTC 1970-01-01 00:00:00

Audio
ID : 2
Format : AAC
Format/Info : Advanced Audio Codec
Format profile : LC
Codec ID : mp4a-40-2
Duration : 8 min 26 s
Bit rate mode : Constant
Bit rate : 128 kb/s
Channel(s) : 2 channels
Channel positions : Front: L R
Sampling rate : 44.1 kHz
Frame rate : 43.066 FPS (1024 SPF)
Compression mode : Lossy
Stream size : 7.73 MiB (71%)
Default : Yes
Alternate group : 1
Encoded date : UTC 1970-01-01 00:00:00
Tagged date : UTC 1970-01-01 00:00:00

Screenshots


Coursera - Natural Language Processing (Columbia University) .

Coursera - Natural Language Processing (Columbia University) .

Coursera - Natural Language Processing (Columbia University) .


Download link:

uploadgig_com:
https://uploadgig.com/file/download/9f18681050c503C4/oyls8.Coursera..Natural.Language.Processing.Columbia.University.part1.rar
https://uploadgig.com/file/download/7aca16cfa11d5795/oyls8.Coursera..Natural.Language.Processing.Columbia.University.part2.rar
https://uploadgig.com/file/download/Fbead2ed10604012/oyls8.Coursera..Natural.Language.Processing.Columbia.University.part3.rar
https://uploadgig.com/file/download/9abf5fba973bc46B/oyls8.Coursera..Natural.Language.Processing.Columbia.University.part4.rar
https://uploadgig.com/file/download/26Cf193865904897/oyls8.Coursera..Natural.Language.Processing.Columbia.University.part5.rar

rapidgator_net:
https://rapidgator.net/file/6895b09f8052c54af3ca0eef486dd9d4/oyls8.Coursera..Natural.Language.Processing.Columbia.University.part1.rar.html
https://rapidgator.net/file/4b04e66895cbce283556a64316c8b9c8/oyls8.Coursera..Natural.Language.Processing.Columbia.University.part2.rar.html
https://rapidgator.net/file/c221b87e15b37918ba525cabce18a468/oyls8.Coursera..Natural.Language.Processing.Columbia.University.part3.rar.html
https://rapidgator.net/file/bac9c811329ba4dfc7b2fd877bda224f/oyls8.Coursera..Natural.Language.Processing.Columbia.University.part4.rar.html
https://rapidgator.net/file/9d7b6233fda72eab45664c45c2539aa8/oyls8.Coursera..Natural.Language.Processing.Columbia.University.part5.rar.html

nitroflare_com:
http://nitroflare.com/view/FDB33D7591D430D/oyls8.Coursera..Natural.Language.Processing.Columbia.University.part1.rar
http://nitroflare.com/view/7BFB6CEBE5E5661/oyls8.Coursera..Natural.Language.Processing.Columbia.University.part2.rar
http://nitroflare.com/view/3D900342A2BEC6A/oyls8.Coursera..Natural.Language.Processing.Columbia.University.part3.rar
http://nitroflare.com/view/2CF784AA5E14C23/oyls8.Coursera..Natural.Language.Processing.Columbia.University.part4.rar
http://nitroflare.com/view/C262A5F8DB914C3/oyls8.Coursera..Natural.Language.Processing.Columbia.University.part5.rar


Links are Interchangeable - No Password - Single Extraction
Direct Download

Tags: Coursera, Natural, Language, Processing, Columbia, University

Coursera - Natural Language Processing (Columbia University) . from rapidshare mediafire megaupload hotfile, Coursera - Natural Language Processing (Columbia University) . via torrent or emule, full free Coursera - Natural Language Processing (Columbia University) ., Coursera - Natural Language Processing (Columbia University) . rar zip password or anything related.

Comments:

Name:*
E-Mail:*
Add Comments:
Enter Code: *