Tiling Floors - by Michael Byrne .

Download Now

Tiling Floors - by Michael Byrne .

Tiling Floors - by Michael Byrne
DVDRip | English | AVI | 720 x 480 | XviD ~1530 Kbps | 29.970 fps
MP3 | 128 Kbps | 44.1 KHz | 2 channels | 1h 19mn | 947 MB
Genre: eLearning Video / Homebuilding, Repair

Learn How to Tile Any Floor in Your Home. Ceramic tile is a versatile and popular material for all kinds of floors. By learning how professional tilesetter Michael Byrne handles the challenges of tiling a watertight bathroom floor and preparing a shower pan, you'll be able to tile any floor in your home, including kitchens, entryways and patios. After an overview of the basic procedures, Byrne gets right into the problem-solving process. You'll find out how to prepare an ideal surface for tiling and how to cut tile efficiently, producing edges that will look and feel right. Beginners will appreciate the clarity and ease of the presentation, while seasoned pros will find Byrne's methods usefully detailed.

By watching Byrne you'll learn how to:

- use a border to simplify and enhance a diagonal layout
- mix and float mortar for a substrate that's level and sturdy
- incorporate expansion joints so that cove tiles won't crack
- shape a sloping shower pan that won't leak


also You can watch my other helpful:
https://rapu.world/search/?category_slug=&query=Repair&language=&age=&author=ParRus&search=1

Repair-posts
(if old file-links don't show activity, try copy-paste them to the address bar)

General
Complete name : tiling floors.avi
Format : AVI
Format/Info : Audio Video Interleave
File size : 947 MiB
Duration : 1h 19mn
Overall bit rate : 1 671 Kbps

Video
ID : 1
Format : MPEG-4 Visual
Format profile : [email protected]
Format settings, BVOP : 2
Format settings, QPel : No
Format settings, GMC : No warppoints
Format settings, Matrix : Default (H.263)
Muxing mode : Packed bitstream
Codec ID : XVID
Codec ID/Hint : XviD
Duration : 1h 19mn
Bit rate : 1 530 Kbps
Width : 720 pixels
Height : 480 pixels
Display aspect ratio : 3:2
Frame rate : 29.970 fps
Standard : NTSC
Color space : YUV
Chroma subsampling : 4:2:0
Bit depth : 8 bits
Scan type : Progressive
Compression mode : Lossy
Bits/(Pixel*Frame) : 0.148
Stream size : 867 MiB (92%)
Writing library : XviD 1.1.0 Beta2 (UTC 2005-04-04)

Audio
ID : 0
Format : MPEG Audio
Format version : Version 1
Format profile : Layer 3
Mode : Dual mono
Codec ID : 55
Codec ID/Hint : MP3
Duration : 1h 19mn
Bit rate mode : Constant
Bit rate : 128 Kbps
Channel(s) : 2 channels
Sampling rate : 44.1 KHz
Compression mode : Lossy
Delay relative to video : 26ms
Stream size : 72.5 MiB (8%)
Alignment : Split accross interleaves
Interleave, duration : 33 ms (1.00 video frame)
Writing library : LAME3.93

Screenshots


Tiling Floors - by Michael Byrne .

Tiling Floors - by Michael Byrne .

Tiling Floors - by Michael Byrne .


Download link:



Links are Interchangeable - No Password - Single Extraction
Direct Download

Tags: Tiling, Floors, Michael

Tiling Floors - by Michael Byrne . from rapidshare mediafire megaupload hotfile, Tiling Floors - by Michael Byrne . via torrent or emule, full free Tiling Floors - by Michael Byrne ., Tiling Floors - by Michael Byrne . rar zip password or anything related.

Comments:

Name:*
E-Mail:*
Add Comments:
Enter Code: *