Dr. Jean-Claude Guimberteau - Muscle Attitudes .

Download Now

Dr. Jean-Claude Guimberteau - Muscle Attitudes .

Dr. Jean-Claude Guimberteau - Muscle Attitudes
WEBRip | English | MP4 | 854 x 482 | AVC ~1476 Kbps | 29.970 fps
AAC | 160 Kbps | 48.0 KHz | 2 channels | 22 min | 258 MB
Genre: eLearning Video / Anatomy, Medicine

This videofilm is in the direct stream of: "Strolling under the skin" and "The Skin excursion". Through this movie , the authors, a surgeon J.C.GUIMBERTEAU and a the scientist J.P. DELAGE want to prove the fact that a muscle is a contractile structure completely included in the meshwork of the multifibrillar system already described under the skin and inside the skin and not a side one.

On the anatomical point of view, they think that there is no tissular discontinuity and all the sheaths around or inside the muscle, epimysium, perimysium or endomysium are, in fact, one unique framing tissue in continuity with sliding tissues embedding organs.
Actually, muscular cells are set inside this microfibrillar and dispersed pattern, architecture.

also You can find my other helpful
https://rapu.world/search/?category_slug=&query=Medicine&language=&age=&author=ParRus&search=1

Medicine-posts

(if old file-links don't show activity, try copy-paste them to the address bar)


General
Complete name : Muscle Attitudes 1.mp4
Format : MPEG-4
Format profile : Base Media / Version 2
Codec ID : mp42 (mp42/mp41/isom/avc1)
File size : 258 MiB
Duration : 22 min 0 s
Overall bit rate mode : Variable
Overall bit rate : 1 640 kb/s
Encoded date : UTC 2015-09-23 13:02:41
Tagged date : UTC 2015-09-23 13:02:41

Video
ID : 1
Format : AVC
Format/Info : Advanced Video Codec
Format profile : [email protected]
Format settings : CABAC / 5 Ref Frames
Format settings, CABAC : Yes
Format settings, RefFrames : 5 frames
Codec ID : avc1
Codec ID/Info : Advanced Video Coding
Duration : 22 min 0 s
Bit rate : 1 476 kb/s
Width : 854 pixels
Height : 482 pixels
Display aspect ratio : 16:9
Frame rate mode : Constant
Frame rate : 29.970 (30000/1001) FPS
Color space : YUV
Chroma subsampling : 4:2:0
Bit depth : 8 bits
Scan type : Progressive
Bits/(Pixel*Frame) : 0.120
Stream size : 232 MiB (90%)
Writing library : x264 core 148 r11 73ae2d1
Encoding settings : cabac=1 / ref=5 / deblock=1:0:0 / analyse=0x3:0x113 / me=umh / subme=8 / psy=1 / psy_rd=1.00:0.00 / mixed_ref=1 / me_range=16 / chroma_me=1 / trellis=1 / 8x8dct=1 / cqm=0 / deadzone=21,11 / fast_pskip=1 / chroma_qp_offset=-2 / threads=15 / lookahead_threads=2 / sliced_threads=0 / nr=0 / decimate=1 / interlaced=0 / bluray_compat=0 / stitchable=1 / constrained_intra=0 / bframes=3 / b_pyramid=2 / b_adapt=2 / b_bias=0 / direct=3 / weightb=1 / open_gop=0 / weightp=2 / keyint=infinite / keyint_min=29 / scenecut=40 / intra_refresh=0 / rc_lookahead=50 / rc=crf / mbtree=1 / crf=20.0 / qcomp=0.60 / qpmin=5 / qpmax=69 / qpstep=4 / vbv_maxrate=2750 / vbv_bufsize=7500 / crf_max=0.0 / nal_hrd=none / filler=0 / ip_ratio=1.40 / aq=1:1.00
Encoded date : UTC 2015-09-23 13:02:41
Tagged date : UTC 2015-09-23 13:02:41
Color range : Limited
Color primaries : BT.709
Transfer characteristics : BT.709
Matrix coefficients : BT.709

Audio
ID : 2
Format : AAC
Format/Info : Advanced Audio Codec
Format profile : LC
Codec ID : mp4a-40-2
Duration : 22 min 0 s
Bit rate mode : Variable
Bit rate : 160 kb/s
Channel(s) : 2 channels
Channel positions : Front: L R
Sampling rate : 48.0 kHz
Frame rate : 46.875 FPS (1024 SPF)
Compression mode : Lossy
Stream size : 25.2 MiB (10%)
Encoded date : UTC 2015-09-23 13:02:41
Tagged date : UTC 2015-09-23 13:02:41

Screenshots


Dr. Jean-Claude Guimberteau - Muscle Attitudes .

Dr. Jean-Claude Guimberteau - Muscle Attitudes .

Dr. Jean-Claude Guimberteau - Muscle Attitudes .


Download link:



Links are Interchangeable - No Password - Single Extraction
Direct Download

Tags: Claude, Guimberteau, Muscle, Attitudes

Dr. Jean-Claude Guimberteau - Muscle Attitudes . from rapidshare mediafire megaupload hotfile, Dr. Jean-Claude Guimberteau - Muscle Attitudes . via torrent or emule, full free Dr. Jean-Claude Guimberteau - Muscle Attitudes ., Dr. Jean-Claude Guimberteau - Muscle Attitudes . rar zip password or anything related.

Comments:

Name:*
E-Mail:*
Add Comments:
Enter Code: *