Coursera - Fundamentals of Music Theory (The University of Edinburgh) .

Download Now

Coursera - Fundamentals of Music Theory (The University of Edinburgh) .

Coursera - Fundamentals of Music Theory (The University of Edinburgh)
WEBRip | English | MP4 + PDF slides | 960 x 540 | AVC ~220 kbps | 29.970 fps
AAC | 128 Kbps | 44.1 KHz | 2 channels | Subs: English (.srt) | ~12 hours | 1.69 GB
Genre: eLearning Video / Music

This course will introduce students to the theory of music, providing them with the skills needed to read and write Western music notation, as well as to understand, analyse, and listen informedly. It will cover material such as pitches and scales, intervals, clefs, rhythm, form, meter, phrases and cadences, and basic harmony.

This course covers the fundamentals of Western music theory, from the absolute basics to some more advanced concepts and, as such, is the perfect course for beginners and more experienced musicians alike.

also You can watch my other helpful:
https://rapu.world/search/?category_slug=&query=Coursera&language=&age=&author=ParRus&search=1

Coursera-posts

General
Complete name : \02_01._Musical_Notes_10-01.mp4
Format : MPEG-4
Format profile : Base Media
Codec ID : isom (isom/iso2/avc1/mp41)
File size : 25.6 MiB
Duration : 10 min 1 s
Overall bit rate : 357 kb/s
Writing application : Lavf55.19.104

Video
ID : 1
Format : AVC
Format/Info : Advanced Video Codec
Format profile : [email protected]
Format settings : CABAC / 4 Ref Frames
Format settings, CABAC : Yes
Format settings, RefFrames : 4 frames
Codec ID : avc1
Codec ID/Info : Advanced Video Coding
Duration : 10 min 1 s
Bit rate : 220 kb/s
Width : 960 pixels
Height : 540 pixels
Display aspect ratio : 16:9
Frame rate mode : Constant
Frame rate : 29.970 (29970/1000) FPS
Color space : YUV
Chroma subsampling : 4:2:0
Bit depth : 8 bits
Scan type : Progressive
Bits/(Pixel*Frame) : 0.014
Stream size : 15.8 MiB (62%)
Writing library : x264 core 138
Encoding settings : cabac=1 / ref=3 / deblock=1:0:0 / analyse=0x1:0x111 / me=hex / subme=7 / psy=1 / psy_rd=1.00:0.00 / mixed_ref=1 / me_range=16 / chroma_me=1 / trellis=1 / 8x8dct=0 / cqm=0 / deadzone=21,11 / fast_pskip=1 / chroma_qp_offset=-2 / threads=12 / lookahead_threads=2 / sliced_threads=0 / nr=0 / decimate=1 / interlaced=0 / bluray_compat=0 / constrained_intra=0 / bframes=3 / b_pyramid=2 / b_adapt=1 / b_bias=0 / direct=1 / weightb=1 / open_gop=0 / weightp=2 / keyint=250 / keyint_min=25 / scenecut=40 / intra_refresh=0 / rc_lookahead=40 / rc=crf / mbtree=1 / crf=28.0 / qcomp=0.60 / qpmin=0 / qpmax=69 / qpstep=4 / ip_ratio=1.40 / aq=1:1.00
Language : English

Audio
ID : 2
Format : AAC
Format/Info : Advanced Audio Codec
Format profile : LC
Codec ID : mp4a-40-2
Duration : 10 min 1 s
Bit rate mode : Constant
Bit rate : 128 kb/s
Channel(s) : 2 channels
Channel positions : Front: L R
Sampling rate : 44.1 kHz
Frame rate : 43.066 FPS (1024 SPF)
Compression mode : Lossy
Stream size : 9.17 MiB (36%)
Language : English
Default : Yes
Alternate group : 1

Screenshots


Coursera - Fundamentals of Music Theory (The University of Edinburgh) .

Coursera - Fundamentals of Music Theory (The University of Edinburgh) .

Coursera - Fundamentals of Music Theory (The University of Edinburgh) .


Download link:

uploadgig_com:
https://uploadgig.com/file/download/439D1F9193c5737c/5gz9p.Coursera..Fundamentals.of.Music.Theory.The.University.of.Edinburgh.part01.rar
https://uploadgig.com/file/download/cd299d8650f4AE27/5gz9p.Coursera..Fundamentals.of.Music.Theory.The.University.of.Edinburgh.part02.rar
https://uploadgig.com/file/download/F3c29c508251b388/5gz9p.Coursera..Fundamentals.of.Music.Theory.The.University.of.Edinburgh.part03.rar
https://uploadgig.com/file/download/261Ce386D1Dd6765/5gz9p.Coursera..Fundamentals.of.Music.Theory.The.University.of.Edinburgh.part04.rar
https://uploadgig.com/file/download/58939257d557Ca72/5gz9p.Coursera..Fundamentals.of.Music.Theory.The.University.of.Edinburgh.part05.rar
https://uploadgig.com/file/download/b5Fc1De60dcaebe5/5gz9p.Coursera..Fundamentals.of.Music.Theory.The.University.of.Edinburgh.part06.rar
https://uploadgig.com/file/download/b81ec478e4653f36/5gz9p.Coursera..Fundamentals.of.Music.Theory.The.University.of.Edinburgh.part07.rar
https://uploadgig.com/file/download/a3634400cA8579C3/5gz9p.Coursera..Fundamentals.of.Music.Theory.The.University.of.Edinburgh.part08.rar
https://uploadgig.com/file/download/cd205fb342592a30/5gz9p.Coursera..Fundamentals.of.Music.Theory.The.University.of.Edinburgh.part09.rar

rapidgator_net:
https://rapidgator.net/file/454f28660c54801331cda078a8c0d77a/5gz9p.Coursera..Fundamentals.of.Music.Theory.The.University.of.Edinburgh.part01.rar.html
https://rapidgator.net/file/a64177a80a14077b6a84380ce0eae691/5gz9p.Coursera..Fundamentals.of.Music.Theory.The.University.of.Edinburgh.part02.rar.html
https://rapidgator.net/file/5e4a3c44db239184c311fb32d3e96148/5gz9p.Coursera..Fundamentals.of.Music.Theory.The.University.of.Edinburgh.part03.rar.html
https://rapidgator.net/file/c9e50775cd8d70f2fed7736fb660cc98/5gz9p.Coursera..Fundamentals.of.Music.Theory.The.University.of.Edinburgh.part04.rar.html
https://rapidgator.net/file/3e561bff57888d74af48664daf577750/5gz9p.Coursera..Fundamentals.of.Music.Theory.The.University.of.Edinburgh.part05.rar.html
https://rapidgator.net/file/15f74e654bbcaed87ec400a3aaa29e0c/5gz9p.Coursera..Fundamentals.of.Music.Theory.The.University.of.Edinburgh.part06.rar.html
https://rapidgator.net/file/c1c9e6e9072e61d3f26aa4842eecbe3e/5gz9p.Coursera..Fundamentals.of.Music.Theory.The.University.of.Edinburgh.part07.rar.html
https://rapidgator.net/file/9eda446f9b1830f06b8bf8f47c347fdc/5gz9p.Coursera..Fundamentals.of.Music.Theory.The.University.of.Edinburgh.part08.rar.html
https://rapidgator.net/file/91e06bb314b367f1f3e8c529b556a6c2/5gz9p.Coursera..Fundamentals.of.Music.Theory.The.University.of.Edinburgh.part09.rar.html

nitroflare_com:
http://nitroflare.com/view/C2BEEFEF1870997/5gz9p.Coursera..Fundamentals.of.Music.Theory.The.University.of.Edinburgh.part01.rar
http://nitroflare.com/view/D671703BEC43320/5gz9p.Coursera..Fundamentals.of.Music.Theory.The.University.of.Edinburgh.part02.rar
http://nitroflare.com/view/46469E03B166E7A/5gz9p.Coursera..Fundamentals.of.Music.Theory.The.University.of.Edinburgh.part03.rar
http://nitroflare.com/view/CD9A6861CB3D94D/5gz9p.Coursera..Fundamentals.of.Music.Theory.The.University.of.Edinburgh.part04.rar
http://nitroflare.com/view/986A582ACF9E23C/5gz9p.Coursera..Fundamentals.of.Music.Theory.The.University.of.Edinburgh.part05.rar
http://nitroflare.com/view/96D9B5C43A2551F/5gz9p.Coursera..Fundamentals.of.Music.Theory.The.University.of.Edinburgh.part06.rar
http://nitroflare.com/view/4775950CD415339/5gz9p.Coursera..Fundamentals.of.Music.Theory.The.University.of.Edinburgh.part07.rar
http://nitroflare.com/view/60EAD6604969D8B/5gz9p.Coursera..Fundamentals.of.Music.Theory.The.University.of.Edinburgh.part08.rar
http://nitroflare.com/view/173A023107EE2C5/5gz9p.Coursera..Fundamentals.of.Music.Theory.The.University.of.Edinburgh.part09.rar


Links are Interchangeable - No Password - Single Extraction
Direct Download

Tags: Coursera, Fundamentals, Theory, University, Edinburgh

Coursera - Fundamentals of Music Theory (The University of Edinburgh) . from rapidshare mediafire megaupload hotfile, Coursera - Fundamentals of Music Theory (The University of Edinburgh) . via torrent or emule, full free Coursera - Fundamentals of Music Theory (The University of Edinburgh) ., Coursera - Fundamentals of Music Theory (The University of Edinburgh) . rar zip password or anything related.

Comments:

Name:*
E-Mail:*
Add Comments:
Enter Code: *