Bass Legends - John Paul Jones .

Download Now

Bass Legends - John Paul Jones .

Bass Legends - John Paul Jones
WEBRip | English | MP4 | 768 x 576 | AVC ~1400 kbps | 25 fps
AAC 127 Kbps 48.0 KHz | 2 channels | 01:26:19 | 945 MB
Genre: eLearning Video / Guitar lesson


Learn five Led Zeppelin tracks note for note with Phil Williams This excellent DVD will teach you the bass techniques that laid the foundations of progressive rock, plus complete tutorials for five tracks including;
Heartbreaker
Rock And Roll
Black Dog
The Immigrant Song
Good Times Bad Times

Phil Williams is a highly sought after freelance bass player, writer and teacher. He has played and toured with many well known bands and artists as diverse as Gary Barlow, Roger Daltrey and Craig David to name just a few. His playing can be heard on numerous film and TV soundtracks.

also You can find my other great:
https://rapu.world/search/?category_slug=&query=Guitar&language=7&age=&author=ParRus&search=1


General
Complete name : 02_Bridge Runs and Remaining Sections.mp4
Format : MPEG-4
Codec ID : M4V (isom/avc1/iso6/M4A /M4V /mp42)
File size : 57.3 MiB
Duration : 5 min 13 s
Overall bit rate mode : Variable
Overall bit rate : 1 532 kb/s
Encoded date : UTC 2017-09-11 13:01:37
Tagged date : UTC 2017-09-11 13:01:37

Video
ID : 1
Format : AVC
Format/Info : Advanced Video Codec
Format profile : [email protected]
Format settings : CABAC / 5 Ref Frames
Format settings, CABAC : Yes
Format settings, RefFrames : 5 frames
Codec ID : avc1
Codec ID/Info : Advanced Video Coding
Duration : 5 min 13 s
Bit rate : 1 400 kb/s
Maximum bit rate : 2 268 kb/s
Width : 768 pixels
Height : 576 pixels
Display aspect ratio : 4:3
Frame rate mode : Constant
Frame rate : 25.000 FPS
Color space : YUV
Chroma subsampling : 4:2:0
Bit depth : 8 bits
Scan type : Progressive
Bits/(Pixel*Frame) : 0.127
Stream size : 52.4 MiB (91%)
Writing library : x264 core 148 r2744kMod b97ae06
Encoding settings : cabac=1 / ref=5 / deblock=1:0:0 / analyse=0x3:0x113 / me=hex / subme=8 / psy=1 / fade_compensate=0.00 / psy_rd=1.00:0.00 / mixed_ref=1 / me_range=16 / chroma_me=1 / trellis=2 / 8x8dct=1 / cqm=0 / deadzone=21,11 / fast_pskip=1 / chroma_qp_offset=-2 / threads=12 / lookahead_threads=2 / sliced_threads=0 / nr=0 / decimate=1 / interlaced=0 / bluray_compat=0 / constrained_intra=0 / bframes=3 / b_pyramid=2 / b_adapt=1 / b_bias=0 / direct=3 / weightb=1 / open_gop=0 / weightp=2 / keyint=250 / keyint_min=25 / scenecut=40 / intra_refresh=0 / rc_lookahead=50 / rc=2pass / mbtree=1 / bitrate=1400 / ratetol=1.0 / qcomp=0.60 / qpmin=0 / qpmax=69 / qpstep=4 / cplxblur=20.0 / qblur=0.5 / ip_ratio=1.40 / aq=1:1.00
Encoded date : UTC 2017-09-11 13:01:37
Tagged date : UTC 2017-09-11 13:01:38

Audio
ID : 2
Format : AAC
Format/Info : Advanced Audio Codec
Format profile : LC
Codec ID : mp4a-40-2
Duration : 5 min 13 s
Bit rate mode : Variable
Bit rate : 127 kb/s
Maximum bit rate : 142 kb/s
Channel(s) : 2 channels
Channel positions : Front: L R
Sampling rate : 48.0 kHz
Frame rate : 46.875 FPS (1024 SPF)
Compression mode : Lossy
Stream size : 4.77 MiB (8%)
Encoded date : UTC 2017-09-11 13:00:17
Tagged date : UTC 2017-09-11 13:01:38

Screenshots


Bass Legends - John Paul Jones .

Bass Legends - John Paul Jones .

Bass Legends - John Paul Jones .


Download link:



Links are Interchangeable - No Password - Single Extraction
Direct Download

Tags: Legends

Bass Legends - John Paul Jones . from rapidshare mediafire megaupload hotfile, Bass Legends - John Paul Jones . via torrent or emule, full free Bass Legends - John Paul Jones ., Bass Legends - John Paul Jones . rar zip password or anything related.

Comments:

Name:*
E-Mail:*
Add Comments:
Enter Code: *