Responsive Web Development HTML & CSS for Web Designers .

Download Now

Responsive Web Development HTML & CSS for Web Designers .

Responsive Web Development: HTML & CSS for Web Designers
WEBRip | English | MP4 | 1280 x 720 | AVC ~837 Kbps | 23.976 fps
AAC | 128 Kbps | 48.0 KHz | 2 channels | 02:44:41 | 805 MB
Genre: Video Tutorial

This class is a two-part course intended to bridge the gap between web design and web development. The first section of the course will be about the differences between web design and web development. We'll go over responsive design, talk about code and end with a little bit of SEO. In the second section, we'll take a ready-made design created in Photoshop and turn that into a fully responsive web page.

Despite the title, this class is setup to benefit both web designers and web developers.

For web designers, you will learn how your designs translate into a working websites so that you can better communicate with developers or build out your own designs yourself.

For web developers, you'll learn how to work with designers and create an accurate copy of their designs in HTML and CSS.

Whether you're a developer wanting to work with a designer, a designer wanting work with a developer or just someone who wants to build skills in both areas, this course is for you.

also You can find my other last:
https://rapu.world/search/?category_slug=&query=programming&language=&age=&author=ParRus&search=1

General
Complete name : 05. PSD to HTML - Before we get started.MP4
Format : MPEG-4
Format profile : Base Media
Codec ID : isom (isom/avc1/mp42)
File size : 10.4 MiB
Duration : 1 min 30 s
Overall bit rate mode : Variable
Overall bit rate : 969 kb/s

Video
ID : 1
Format : AVC
Format/Info : Advanced Video Codec
Format profile : [email protected]
Format settings : CABAC / 4 Ref Frames
Format settings, CABAC : Yes
Format settings, RefFrames : 4 frames
Format settings, GOP : M=3, N=48
Codec ID : avc1
Codec ID/Info : Advanced Video Coding
Duration : 1 min 30 s
Bit rate : 837 kb/s
Maximum bit rate : 4 133 kb/s
Width : 1 280 pixels
Height : 720 pixels
Display aspect ratio : 16:9
Frame rate mode : Constant
Frame rate : 23.976 (24000/1001) FPS
Color space : YUV
Chroma subsampling : 4:2:0
Bit depth : 8 bits
Scan type : Progressive
Bits/(Pixel*Frame) : 0.038
Stream size : 8.99 MiB (86%)
Writing library : Zencoder Video Encoding System
Encoded date : UTC 2019-02-27 06:35:45
Tagged date : UTC 2019-02-27 06:35:59
Color range : Limited
Color primaries : BT.709
Transfer characteristics : BT.709
Matrix coefficients : BT.709

Audio
ID : 2
Format : AAC
Format/Info : Advanced Audio Codec
Format profile : LC
Codec ID : mp4a-40-2
Duration : 1 min 30 s
Bit rate mode : Variable
Bit rate : 128 kb/s
Maximum bit rate : 139 kb/s
Channel(s) : 2 channels
Channel positions : Front: L R
Sampling rate : 48.0 kHz
Frame rate : 46.875 FPS (1024 SPF)
Compression mode : Lossy
Stream size : 1.38 MiB (13%)
Encoded date : UTC 2019-02-27 06:35:30
Tagged date : UTC 2019-02-27 06:35:59

Screenshots


Responsive Web Development HTML & CSS for Web Designers .

Responsive Web Development HTML & CSS for Web Designers .

Responsive Web Development HTML & CSS for Web Designers .


Download link:

uploadgig_com:
https://uploadgig.com/file/download/10a0558Ccf840e63/ale5h.Responsive.Web.Development.HTML..CSS.for.Web.Designers.part01.rar
https://uploadgig.com/file/download/F317De7Ea5f3d130/ale5h.Responsive.Web.Development.HTML..CSS.for.Web.Designers.part02.rar
https://uploadgig.com/file/download/4E38e0787c9b3B52/ale5h.Responsive.Web.Development.HTML..CSS.for.Web.Designers.part03.rar
https://uploadgig.com/file/download/821Df0f7E58c44D7/ale5h.Responsive.Web.Development.HTML..CSS.for.Web.Designers.part04.rar
https://uploadgig.com/file/download/78C8ba0a755b15b9/ale5h.Responsive.Web.Development.HTML..CSS.for.Web.Designers.part05.rar
https://uploadgig.com/file/download/4d374fBeaeDc40df/ale5h.Responsive.Web.Development.HTML..CSS.for.Web.Designers.part06.rar
https://uploadgig.com/file/download/7bf2C0315b94aD44/ale5h.Responsive.Web.Development.HTML..CSS.for.Web.Designers.part07.rar
https://uploadgig.com/file/download/8eFdFc6709fe6613/ale5h.Responsive.Web.Development.HTML..CSS.for.Web.Designers.part08.rar
https://uploadgig.com/file/download/2bA5343138e71aA2/ale5h.Responsive.Web.Development.HTML..CSS.for.Web.Designers.part09.rar

rapidgator_net:
https://rapidgator.net/file/0e16caefd3697025f033a22d26b2d3ba/ale5h.Responsive.Web.Development.HTML..CSS.for.Web.Designers.part01.rar.html
https://rapidgator.net/file/a840bad0ff1c4e7216bd13767b4eda1c/ale5h.Responsive.Web.Development.HTML..CSS.for.Web.Designers.part02.rar.html
https://rapidgator.net/file/4d5198707eab43ae1220c1c2a86d4595/ale5h.Responsive.Web.Development.HTML..CSS.for.Web.Designers.part03.rar.html
https://rapidgator.net/file/e5953a6cdea31fbcb8bdd3c20eba5ee3/ale5h.Responsive.Web.Development.HTML..CSS.for.Web.Designers.part04.rar.html
https://rapidgator.net/file/d21468fb18d9a37d23911a54d820016f/ale5h.Responsive.Web.Development.HTML..CSS.for.Web.Designers.part05.rar.html
https://rapidgator.net/file/09087d087c5e93a2022868b2801b8fe1/ale5h.Responsive.Web.Development.HTML..CSS.for.Web.Designers.part06.rar.html
https://rapidgator.net/file/2a262799de6b177e4dd0cb0f31e3a6fd/ale5h.Responsive.Web.Development.HTML..CSS.for.Web.Designers.part07.rar.html
https://rapidgator.net/file/3c2e1973c6903f6a1a30737b42967e75/ale5h.Responsive.Web.Development.HTML..CSS.for.Web.Designers.part08.rar.html
https://rapidgator.net/file/466a351ac7cdfa4a354772ff4b39dbef/ale5h.Responsive.Web.Development.HTML..CSS.for.Web.Designers.part09.rar.html

nitroflare_com:
http://nitroflare.com/view/30C8B8FBD131443/ale5h.Responsive.Web.Development.HTML..CSS.for.Web.Designers.part01.rar
http://nitroflare.com/view/27561729275B7D4/ale5h.Responsive.Web.Development.HTML..CSS.for.Web.Designers.part02.rar
http://nitroflare.com/view/3A7FF5658D30559/ale5h.Responsive.Web.Development.HTML..CSS.for.Web.Designers.part03.rar
http://nitroflare.com/view/F9741D0D532BC02/ale5h.Responsive.Web.Development.HTML..CSS.for.Web.Designers.part04.rar
http://nitroflare.com/view/99E9203DF015980/ale5h.Responsive.Web.Development.HTML..CSS.for.Web.Designers.part05.rar
http://nitroflare.com/view/5F49967830F07BB/ale5h.Responsive.Web.Development.HTML..CSS.for.Web.Designers.part06.rar
http://nitroflare.com/view/3278B74E4B97341/ale5h.Responsive.Web.Development.HTML..CSS.for.Web.Designers.part07.rar
http://nitroflare.com/view/69AF17AF56F1795/ale5h.Responsive.Web.Development.HTML..CSS.for.Web.Designers.part08.rar
http://nitroflare.com/view/4F37A7D0EFD612B/ale5h.Responsive.Web.Development.HTML..CSS.for.Web.Designers.part09.rar


Links are Interchangeable - No Password - Single Extraction
Direct Download

Tags: Responsive, Development, Designers

Responsive Web Development HTML & CSS for Web Designers . from rapidshare mediafire megaupload hotfile, Responsive Web Development HTML & CSS for Web Designers . via torrent or emule, full free Responsive Web Development HTML & CSS for Web Designers ., Responsive Web Development HTML & CSS for Web Designers . rar zip password or anything related.

Comments:

Name:*
E-Mail:*
Add Comments:
Enter Code: *