Dean Graziosi - Rock Bottom Blueprint [Updated] .

Download Now

Dean Graziosi - Rock Bottom Blueprint [Updated] .

Dean Graziosi - Rock Bottom Blueprint [Updated]
WEBRip | English | FLV | 720 x 486 | VP6 ~500 Kbps | 29.970 fps
MP3 | 64 Kbps | 22.05 KHz | 2 channels | ~20 hours | 5.03 GB
Genre: eLearning Video / Business, Real Estate

Happy DAY Readers, You can go watch Dean Graziosi's third new training video now! This guy is truly creative in the way he teaches. He's literally cooking while he is answering questions you have posted Readers, Yea; YOU gotta see this Team. And Dean Graziosi isn't afraid to go right after your toughest questions: - "Come on Dean, can I really do this with no money?" - "Does it work in my crappy area" - "What makes this different then all the other stuff out there"

Dean Graziosi answers these and more tough questions with straight forward, easy to understand answers Readers.

Plus he includes video clips of people with, pulse pounding information to share on how they're pulling in thousands of dollars in passive income every month, (many with no money) and even becoming millionaires in the "So Called" worst Real Estate Market ever.

Listen, you need to go watch this Video right away, because on top of all that, Dean Graziosi is doing a special "tell all" conference call next week and you'll definitely want to be a part of it.

You need to watch the Video to get the date and time of the call. PLUS A SPECIAL USEABLE GIFT.

You're going to get all the proof of why the "Rock Bottom Blueprint" works, and how you can be the first to start using it and finally, once and for all, change your life for the better!

So click below and let me know what you think.

also You can find my other helpful
https://rapu.world/search/?category_slug=&query=Business&language=&age=year&author=ParRus&search=1


General
Complete name : Video-03.flv
Format : Flash Video
File size : 118 MiB
Duration : 26 min 27 s
Overall bit rate : 625 kb/s

Video
Format : VP6
Codec ID : 4
Duration : 26 min 27 s
Bit rate : 500 kb/s
Width : 720 pixels
Height : 486 pixels
Display aspect ratio : 3:2
Frame rate mode : Constant
Frame rate : 29.970 FPS
Standard : NTSC
Bit depth : 8 bits
Bits/(Pixel*Frame) : 0.048
Stream size : 94.6 MiB (80%)

Audio
Format : MPEG Audio
Format version : Version 2
Format profile : Layer 3
Format settings : Joint stereo / Intensity Stereo + MS Stereo
Codec ID : 2
Codec ID/Hint : MP3
Duration : 26 min 27 s
Bit rate mode : Constant
Bit rate : 64.0 kb/s
Channel(s) : 2 channels
Sampling rate : 22.05 kHz
Compression mode : Lossy
Stream size : 12.1 MiB (10%)

Screenshots


Dean Graziosi - Rock Bottom Blueprint [Updated] .

Dean Graziosi - Rock Bottom Blueprint [Updated] .

Dean Graziosi - Rock Bottom Blueprint [Updated] .


Download link:

uploadgig_com:
https://uploadgig.com/file/download/3cd33e407ec8f080/xkr7p.Dean.Graziosi..Rock.Bottom.Blueprint.part01.rar
https://uploadgig.com/file/download/Ed0740eCD5dDd753/xkr7p.Dean.Graziosi..Rock.Bottom.Blueprint.part02.rar
https://uploadgig.com/file/download/997FAae8cf9AAe59/xkr7p.Dean.Graziosi..Rock.Bottom.Blueprint.part03.rar
https://uploadgig.com/file/download/67583B234c1a089a/xkr7p.Dean.Graziosi..Rock.Bottom.Blueprint.part04.rar
https://uploadgig.com/file/download/22a0f5277574f96E/xkr7p.Dean.Graziosi..Rock.Bottom.Blueprint.part05.rar
https://uploadgig.com/file/download/884c458Ed37529e4/xkr7p.Dean.Graziosi..Rock.Bottom.Blueprint.part06.rar
https://uploadgig.com/file/download/8b3d46e5A4E67Ceb/xkr7p.Dean.Graziosi..Rock.Bottom.Blueprint.part07.rar
https://uploadgig.com/file/download/08097Fb32aAaeffb/xkr7p.Dean.Graziosi..Rock.Bottom.Blueprint.part08.rar
https://uploadgig.com/file/download/e5b860e29fD67b9d/xkr7p.Dean.Graziosi..Rock.Bottom.Blueprint.part09.rar

rapidgator_net:
https://rapidgator.net/file/66655a3ac09b357b02a636886a8aceac/xkr7p.Dean.Graziosi..Rock.Bottom.Blueprint.part01.rar.html
https://rapidgator.net/file/87051faa98e8ffb2334e477adca69d09/xkr7p.Dean.Graziosi..Rock.Bottom.Blueprint.part02.rar.html
https://rapidgator.net/file/51261a5c1e778f66955dff8dc109e3ab/xkr7p.Dean.Graziosi..Rock.Bottom.Blueprint.part03.rar.html
https://rapidgator.net/file/ab881b10de3342f900476387e398ccf3/xkr7p.Dean.Graziosi..Rock.Bottom.Blueprint.part04.rar.html
https://rapidgator.net/file/06713a49a23066a19e0f00b75a026118/xkr7p.Dean.Graziosi..Rock.Bottom.Blueprint.part05.rar.html
https://rapidgator.net/file/3febfb7f57bcd81eb6ae9d89c1cc6b85/xkr7p.Dean.Graziosi..Rock.Bottom.Blueprint.part06.rar.html
https://rapidgator.net/file/dc42eec29bebbe752d05432db8f5f210/xkr7p.Dean.Graziosi..Rock.Bottom.Blueprint.part07.rar.html
https://rapidgator.net/file/d19b25a58ca8a401f9fbbb2a640ab688/xkr7p.Dean.Graziosi..Rock.Bottom.Blueprint.part08.rar.html
https://rapidgator.net/file/ddbf902d0e640a157399b3396d745bc8/xkr7p.Dean.Graziosi..Rock.Bottom.Blueprint.part09.rar.html

nitroflare_com:
http://nitroflare.com/view/7DEBA0FD9906669/xkr7p.Dean.Graziosi..Rock.Bottom.Blueprint.part01.rar
http://nitroflare.com/view/0D802B077A4400F/xkr7p.Dean.Graziosi..Rock.Bottom.Blueprint.part02.rar
http://nitroflare.com/view/88B819B6AB97F26/xkr7p.Dean.Graziosi..Rock.Bottom.Blueprint.part03.rar
http://nitroflare.com/view/E286DAFAADD5D8C/xkr7p.Dean.Graziosi..Rock.Bottom.Blueprint.part04.rar
http://nitroflare.com/view/9EAEAFBF573F6CD/xkr7p.Dean.Graziosi..Rock.Bottom.Blueprint.part05.rar
http://nitroflare.com/view/5535A67D55774D7/xkr7p.Dean.Graziosi..Rock.Bottom.Blueprint.part06.rar
http://nitroflare.com/view/F59CF370C93D2C8/xkr7p.Dean.Graziosi..Rock.Bottom.Blueprint.part07.rar
http://nitroflare.com/view/E853C1F4065BE8B/xkr7p.Dean.Graziosi..Rock.Bottom.Blueprint.part08.rar
http://nitroflare.com/view/12336F0B4888B8D/xkr7p.Dean.Graziosi..Rock.Bottom.Blueprint.part09.rar


Links are Interchangeable - No Password - Single Extraction
Direct Download

Tags: Graziosi, Bottom, Blueprint, Updated

Dean Graziosi - Rock Bottom Blueprint [Updated] . from rapidshare mediafire megaupload hotfile, Dean Graziosi - Rock Bottom Blueprint [Updated] . via torrent or emule, full free Dean Graziosi - Rock Bottom Blueprint [Updated] ., Dean Graziosi - Rock Bottom Blueprint [Updated] . rar zip password or anything related.

Comments:

Name:*
E-Mail:*
Add Comments:
Enter Code: *