Gary Ryan - 100 Day Challenge .

Download Now

Gary Ryan - 100 Day Challenge .

Gary Ryan - 100 Day Challenge
WEBRip | English | MP4 + PDF Guides | 1152 x 720 | AVC ~580 Kbps | 30 fps
AAC | 192 Kbps | 44.1 KHz | 2 channels | ~7 hours | 3.84 GB
Genre: eLearning Video / Self Improvement

Introducing...the ultimate high-performance system designed to transform your life in 100 days. You're in for a real treat as I'm going show you a proven system for fast tracking your goals, unleashing a performance explosion...and getting more accomplished in 100 days than most people and organizations do over the course of ten years.

So whether you're an entrepreneur, salesperson, student, athlete, soldier, manager or office worker...the 100 Day Challenge will be your ticket to inexpensively transforming your life, skyrocketing your sales and profits and achieving any goal you want faster and easier than ever.

Imagine what it would be like 100 DAYS FROM TODAY if you could...

* Be in the best shape of your life
* Write and publish your book or song
* Become the sales leader in your organization
* Create an info-product and launch it worldwide
* Improve your grades and get on the Dean's List
* Generate game-changing revenue for your current business
* Restore or strengthen relationships with family, friends or colleagues
* Pay off thousands of dollars in debt...and become completely debt free

How would that make you feel...and what impact would it have on your life and career?

Not only would it propel you to a completely new level of experience, confidence, and accomplishment, but it would likely have a domino effect on your life for years to come.

Skeptical? Here's indisputable proof that you can indeed TRANSFORM YOUR LIFE IN 100 DAYS...


General
Complete name : 4th Quarter I Finish Strong I 100 Day Challenge.flv.mp4
Format : MPEG-4
Format profile : Base Media / Version 2
Codec ID : mp42 (isom/mp42)
File size : 40.6 MiB
Duration : 7 min 19 s
Overall bit rate mode : Variable
Overall bit rate : 774 kb/s
Encoded date : UTC 2014-09-30 03:34:26
Tagged date : UTC 2014-09-30 03:34:26
gsst : 0
gstd : 439483
gssd : BBDC3A806MM1412189851336944

Video
ID : 1
Format : AVC
Format/Info : Advanced Video Codec
Format profile : [email protected]
Format settings : CABAC / 1 Ref Frames
Format settings, CABAC : Yes
Format settings, RefFrames : 1 frame
Format settings, GOP : M=1, N=60
Codec ID : avc1
Codec ID/Info : Advanced Video Coding
Duration : 7 min 19 s
Bit rate : 580 kb/s
Maximum bit rate : 3 706 kb/s
Width : 1 152 pixels
Height : 720 pixels
Display aspect ratio : 16:10
Frame rate mode : Constant
Frame rate : 30.000 FPS
Color space : YUV
Chroma subsampling : 4:2:0
Bit depth : 8 bits
Scan type : Progressive
Bits/(Pixel*Frame) : 0.023
Stream size : 30.4 MiB (75%)
Tagged date : UTC 2014-09-30 03:34:29

Audio
ID : 2
Format : AAC
Format/Info : Advanced Audio Codec
Format profile : LC
Codec ID : mp4a-40-2
Duration : 7 min 19 s
Bit rate mode : Variable
Bit rate : 192 kb/s
Maximum bit rate : 202 kb/s
Channel(s) : 2 channels
Channel positions : Front: L R
Sampling rate : 44.1 kHz
Frame rate : 43.066 FPS (1024 SPF)
Compression mode : Lossy
Stream size : 10.1 MiB (25%)
Title : IsoMedia File Produced by Google, 5-11-2011
Encoded date : UTC 2014-09-30 03:34:27
Tagged date : UTC 2014-09-30 03:34:29

Screenshots


Gary Ryan - 100 Day Challenge .

Gary Ryan - 100 Day Challenge .

Gary Ryan - 100 Day Challenge .


Download link:

uploadgig_com:
https://uploadgig.com/file/download/144b6a472E698e7a/4llu0.Gary.Ryan..100.Day.Challenge.part01.rar
https://uploadgig.com/file/download/289b816d9f32667e/4llu0.Gary.Ryan..100.Day.Challenge.part02.rar
https://uploadgig.com/file/download/2db8d435aB2a41C0/4llu0.Gary.Ryan..100.Day.Challenge.part03.rar
https://uploadgig.com/file/download/1d19e70eC49Beb77/4llu0.Gary.Ryan..100.Day.Challenge.part04.rar
https://uploadgig.com/file/download/f750546a8f37B48d/4llu0.Gary.Ryan..100.Day.Challenge.part05.rar
https://uploadgig.com/file/download/14c767aB8e17cDfa/4llu0.Gary.Ryan..100.Day.Challenge.part06.rar
https://uploadgig.com/file/download/23B76c9faF9895ba/4llu0.Gary.Ryan..100.Day.Challenge.part07.rar
https://uploadgig.com/file/download/20a9F0e3df387238/4llu0.Gary.Ryan..100.Day.Challenge.part08.rar
https://uploadgig.com/file/download/3f9845c201cec9D2/4llu0.Gary.Ryan..100.Day.Challenge.part09.rar
https://uploadgig.com/file/download/30F6b3601fd5c32c/4llu0.Gary.Ryan..100.Day.Challenge.part10.rar

rapidgator_net:
https://rapidgator.net/file/8196364b7411c59cc27d6b17e883cf53/4llu0.Gary.Ryan..100.Day.Challenge.part01.rar.html
https://rapidgator.net/file/44c63ddef3b397d2d58b82b17e3d09ea/4llu0.Gary.Ryan..100.Day.Challenge.part02.rar.html
https://rapidgator.net/file/acd82b61c07030313d2604e8179e29e6/4llu0.Gary.Ryan..100.Day.Challenge.part03.rar.html
https://rapidgator.net/file/17079543b4e758cbaab133be14d1e0ec/4llu0.Gary.Ryan..100.Day.Challenge.part04.rar.html
https://rapidgator.net/file/1e4eeee87922b829e966682f6d3cdf31/4llu0.Gary.Ryan..100.Day.Challenge.part05.rar.html
https://rapidgator.net/file/d0a1847ccc10a0edb6e9c7d3d3453862/4llu0.Gary.Ryan..100.Day.Challenge.part06.rar.html
https://rapidgator.net/file/282d330849cf571b11de7e9ef25372a4/4llu0.Gary.Ryan..100.Day.Challenge.part07.rar.html
https://rapidgator.net/file/a83775789af26b8c5093c8e3da7a14bf/4llu0.Gary.Ryan..100.Day.Challenge.part08.rar.html
https://rapidgator.net/file/5ee9a3ca21f21366c3dc238bb4804bee/4llu0.Gary.Ryan..100.Day.Challenge.part09.rar.html
https://rapidgator.net/file/0b927eca78f2106c202ec158a9c68f32/4llu0.Gary.Ryan..100.Day.Challenge.part10.rar.html

nitroflare_com:
http://nitroflare.com/view/8D02338A82DF801/4llu0.Gary.Ryan..100.Day.Challenge.part01.rar
http://nitroflare.com/view/F0EF0244B7DB6B3/4llu0.Gary.Ryan..100.Day.Challenge.part02.rar
http://nitroflare.com/view/9152CAD31065AE6/4llu0.Gary.Ryan..100.Day.Challenge.part03.rar
http://nitroflare.com/view/6316FE9003669F5/4llu0.Gary.Ryan..100.Day.Challenge.part04.rar
http://nitroflare.com/view/2E6277457997765/4llu0.Gary.Ryan..100.Day.Challenge.part05.rar
http://nitroflare.com/view/068101027F0406A/4llu0.Gary.Ryan..100.Day.Challenge.part06.rar
http://nitroflare.com/view/28F8E3F1FFA65C0/4llu0.Gary.Ryan..100.Day.Challenge.part07.rar
http://nitroflare.com/view/52309551AC8226D/4llu0.Gary.Ryan..100.Day.Challenge.part08.rar
http://nitroflare.com/view/454604D6061D81D/4llu0.Gary.Ryan..100.Day.Challenge.part09.rar
http://nitroflare.com/view/A80AB75DCBD0093/4llu0.Gary.Ryan..100.Day.Challenge.part10.rar


Links are Interchangeable - No Password - Single Extraction
Direct Download

Tags: Challenge

Gary Ryan - 100 Day Challenge . from rapidshare mediafire megaupload hotfile, Gary Ryan - 100 Day Challenge . via torrent or emule, full free Gary Ryan - 100 Day Challenge ., Gary Ryan - 100 Day Challenge . rar zip password or anything related.

Comments:

Name:*
E-Mail:*
Add Comments:
Enter Code: *