The Music Of Buddy Holly

Download Now

The Music Of Buddy Holly

The Music Of Buddy Holly
DVD5 | English | VIDEO_TS | 720 x 480 | MPEG2 ~4800 kbps | 29.970 fps
AC-3 256 Kbps 48.0 KHz | 2 channels | 1 hour | 4.17 GB
Genre: eLearning Video / Guitar lesson

Though Buddy Holly's career was short, he was a huge influence on the Beatles, the Rolling Stones, Bob Dylan and most of the rockers and songwriters of the 1960s, 1970s and beyond. Most of the songs in this collection have been hits many times over and they're still covered today by rock, pop and country bands.

Fred makes Buddy's tunes accessible to fingerpicking guitarists in this instructional DVD that includes rockers like That'll Be the Day, It's So Easy and Maybe Baby, and pretty ballads like Raining In My Heart and Everyday. He explains the tricky parts of the arrangements, and presents a split-screen, slower version of each tune, so that you can back yourself up singing and can play instrumental versions of every song as well. His easy going instructional style makes it fun to learn! Other Buddy Holly tunes in this set include Peggy Sue, Lonesome Tears and It Doesn't Matter Anymore. All the songs (backup and solos) are written out in tab and music in the PDF file on the DVD.

also You can find my other great:
https://rapu.world/search/?category_slug=&query=Guitar&language=7&age=&author=ParRus&search=1


General
Complete name : VTS_02_2.VOB
Format : MPEG-PS
File size : 1 024 MiB
Duration : 27 min 43 s
Overall bit rate mode : Constant
Overall bit rate : 5 164 kb/s

Video
ID : 224 (0xE0)
Format : MPEG Video
Format version : Version 2
Format profile : [email protected]
Format settings : CustomMatrix / BVOP
Format settings, BVOP : Yes
Format settings, Matrix : Custom
Format settings, GOP : M=3, N=15
Format settings, picture structure : Frame
Duration : 27 min 42 s
Bit rate mode : Constant
Bit rate : 4 800 kb/s
Width : 720 pixels
Height : 480 pixels
Display aspect ratio : 4:3
Frame rate : 29.970 (30000/1001) FPS
Standard : NTSC
Color space : YUV
Chroma subsampling : 4:2:0
Bit depth : 8 bits
Scan type : Interlaced
Scan order : Top Field First
Compression mode : Lossy
Bits/(Pixel*Frame) : 0.463
Time code of first frame : 01:28:02;15
Time code source : Group of pictures header
GOP, Open/Closed : Closed
Stream size : 953 MiB (93%)

Audio
ID : 189 (0xBD)-128 (0x80)
Format : AC-3
Format/Info : Audio Coding 3
Muxing mode : DVD-Video
Duration : 27 min 43 s
Bit rate mode : Constant
Bit rate : 256 kb/s
Channel(s) : 2 channels
Channel positions : Front: L R
Sampling rate : 48.0 kHz
Frame rate : 31.250 FPS (1536 SPF)
Bit depth : 16 bits
Compression mode : Lossy
Delay relative to video : -549 ms
Stream size : 50.8 MiB (5%)
Service kind : Complete Main

Menu

Screenshots


The Music Of Buddy Holly

The Music Of Buddy Holly

The Music Of Buddy Holly


Download link:

uploadgig_com:
http://uploadgig.com/file/download/b61073C5Ef63c31A/4muvm.The.Music.Of.Buddy.Holly.part1.rar
http://uploadgig.com/file/download/cf5045eAfA98eB26/4muvm.The.Music.Of.Buddy.Holly.part2.rar
http://uploadgig.com/file/download/4a8a31455a820688/4muvm.The.Music.Of.Buddy.Holly.part3.rar
http://uploadgig.com/file/download/07Ce58549672aCab/4muvm.The.Music.Of.Buddy.Holly.part4.rar
http://uploadgig.com/file/download/4fb3a8C93daC36Ef/4muvm.The.Music.Of.Buddy.Holly.part5.rar
http://uploadgig.com/file/download/13034Ea95D491e96/4muvm.The.Music.Of.Buddy.Holly.part6.rar
http://uploadgig.com/file/download/9BfaC53b30Cc7790/4muvm.The.Music.Of.Buddy.Holly.part7.rar
http://uploadgig.com/file/download/87e706cebfD3683E/4muvm.The.Music.Of.Buddy.Holly.part8.rar

rapidgator_net:
https://rapidgator.net/file/018e2ceee6a4e399c36adb4d634d008c/4muvm.The.Music.Of.Buddy.Holly.part1.rar.html
https://rapidgator.net/file/62a2da8fa6ac9288e8ae9bfe25c7ddec/4muvm.The.Music.Of.Buddy.Holly.part2.rar.html
https://rapidgator.net/file/c27b9f9f6e4391f097ce1d9684667f68/4muvm.The.Music.Of.Buddy.Holly.part3.rar.html
https://rapidgator.net/file/d6e9859f102b33f93cb08a093e785d79/4muvm.The.Music.Of.Buddy.Holly.part4.rar.html
https://rapidgator.net/file/272cbaf2306d0bb49884b4bf78204a9c/4muvm.The.Music.Of.Buddy.Holly.part5.rar.html
https://rapidgator.net/file/f96b6e1c39ee088717906f064933e44b/4muvm.The.Music.Of.Buddy.Holly.part6.rar.html
https://rapidgator.net/file/fbfa54aeb6ad598796f8c75640ca8e65/4muvm.The.Music.Of.Buddy.Holly.part7.rar.html
https://rapidgator.net/file/228e9b0cd701054b06106c07e0c94918/4muvm.The.Music.Of.Buddy.Holly.part8.rar.html

nitroflare_com:
http://nitroflare.com/view/D31612D6E7136BA/4muvm.The.Music.Of.Buddy.Holly.part1.rar
http://nitroflare.com/view/C0FB8BFDC3C5C92/4muvm.The.Music.Of.Buddy.Holly.part2.rar
http://nitroflare.com/view/E66D4663BF02114/4muvm.The.Music.Of.Buddy.Holly.part3.rar
http://nitroflare.com/view/D1C09DF6D835AB2/4muvm.The.Music.Of.Buddy.Holly.part4.rar
http://nitroflare.com/view/1087DE516B3903C/4muvm.The.Music.Of.Buddy.Holly.part5.rar
http://nitroflare.com/view/9766F59A7E30DC9/4muvm.The.Music.Of.Buddy.Holly.part6.rar
http://nitroflare.com/view/BA0A3D1AC3644D4/4muvm.The.Music.Of.Buddy.Holly.part7.rar
http://nitroflare.com/view/3139C39FA3B0EC3/4muvm.The.Music.Of.Buddy.Holly.part8.rar


Links are Interchangeable - No Password - Single Extraction
Direct Download
The Music Of Buddy Holly from rapidshare mediafire megaupload hotfile, The Music Of Buddy Holly via torrent or emule, full free The Music Of Buddy Holly, The Music Of Buddy Holly rar zip password or anything related.

Comments:

Name:*
E-Mail:*
Add Comments:
Enter Code: *