The Guitar Of Lonnie Johnson taught by Ari Eisinger

Download Now

The Guitar Of Lonnie Johnson taught by Ari Eisinger

The Guitar Of Lonnie Johnson taught by Ari Eisinger
WEBRip | English | AVI + PDF Guide | 352 x 288 | XviD ~697 kbps | 29.970 fps
MP3 128 Kbps 44.1 KHz | 2 channels | 02:46:19 | 1004.1 MB
Genre: eLearning Video / Guitar lesson

Lonnie Johnson pioneered the single-string solo guitar styles that we are accustomed to hearing today in rock, blues and jazz music. He played with blues and jazz greats including Texas Alexander, Duke Ellingon, Louie Armstrong and Bessie Smith, and used the guitar as a solo instrument in jazz bands years before Charlie Christian. His recorded blues and jazz solos, including his famous duets with the early jazz guitarist Eddie Lang, are exemplary both for their incredibly beautiful guitar tone and for their sheer, jaw-dropping virtuosity. His To Do This You Got To Know How remains one of the most amazing guitar solos ever recorded.

Although he was influential beyond measure, his reputation has lately taken a back seat to more famous blues players whose influence is often exaggerated as much as Johnson's is underestimated.
In this double DVD, the first devoted in its entirety to the guitar style of Lonnie Johnson, Ari Eisinger explores Lonnie Johnson's blues style in detail, presenting stylistic hallmarks of Johnson's playing including a discussion of left hand fingerings, use of diminished chords and Lonnie's blues playing in the Key of D. Ari teaches eight guitar breaks from some of Lonnie's best tunes. These include his instrumental masterpiece To Do This You Got To Know How, his jazzy Uncle Ned Don't Use Your Head, his evocative Woke Up With the Blues In My Fingers and I'm So Tired Of Living All Alone, Lonnie's version of the song Skip James recorded as I'm So Glad.

also You can find my other great:
https://rapu.world/search/?category_slug=&query=Guitar&language=7&age=&author=ParRus&search=1


General
Complete name : Disc1.avi
Format : AVI
Format/Info : Audio Video Interleave
File size : 584 MiB
Duration : 1 h 36 min
Overall bit rate : 843 kb/s

Video
ID : 0
Format : MPEG-4 Visual
Format profile : [email protected]
Format settings, BVOP : No
Format settings, QPel : No
Format settings, GMC : No warppoints
Format settings, Matrix : Default (H.263)
Codec ID : XVID
Codec ID/Hint : XviD
Duration : 1 h 36 min
Bit rate : 697 kb/s
Width : 352 pixels
Height : 288 pixels
Display aspect ratio : 1.222
Frame rate : 29.970 (30000/1001) FPS
Original frame rate : 29.000 FPS
Color space : YUV
Chroma subsampling : 4:2:0
Bit depth : 8 bits
Scan type : Progressive
Compression mode : Lossy
Bits/(Pixel*Frame) : 0.230
Stream size : 483 MiB (83%)
Writing library : XviD 1.2.1 (UTC 2008-12-04)

Audio
ID : 1
Format : MPEG Audio
Format version : Version 1
Format profile : Layer 3
Format settings : Joint stereo
Codec ID : 55
Codec ID/Hint : MP3
Duration : 1 h 36 min
Bit rate mode : Constant
Bit rate : 128 kb/s
Channel(s) : 2 channels
Sampling rate : 44.1 kHz
Compression mode : Lossy
Stream size : 88.6 MiB (15%)
Alignment : Aligned on interleaves
Interleave, duration : 26 ms (0.78 video frame)
Interleave, preload duration : 26 ms
Writing library : LAME3.98.2

Screenshots


The Guitar Of Lonnie Johnson taught by Ari Eisinger

The Guitar Of Lonnie Johnson taught by Ari Eisinger

The Guitar Of Lonnie Johnson taught by Ari Eisinger


Download link:



Links are Interchangeable - No Password - Single Extraction
Direct Download

Tags: Guitar, Lonnie, Johnson, taught, Eisinger

The Guitar Of Lonnie Johnson taught by Ari Eisinger from rapidshare mediafire megaupload hotfile, The Guitar Of Lonnie Johnson taught by Ari Eisinger via torrent or emule, full free The Guitar Of Lonnie Johnson taught by Ari Eisinger, The Guitar Of Lonnie Johnson taught by Ari Eisinger rar zip password or anything related.

Comments:

Name:*
E-Mail:*
Add Comments:
Enter Code: *