Tom Waits Rain Dogs 1985 [2014 Universal Music Japan UICY-40065]

Download Now

http://i68.fastpic.ru/big/2014/1127/8b/4af58b0c43c2fbe632764cec65bdf68b.jpg

Tom Waits - Rain Dogs (1985)
EAC | Flac(Image) + Cue + Log & M4A(Tracks) & MP3 CBR 320Kbps
Universal Music Japan, UICY-40065 | ~ 271 or 272 or 128 Mb | Scans(png) -> 129 Mb
Rock / Blues / Blues Rock

"With its jarring rhythms and unusual instrumentation -- marimba, accordion, various percussion -- as well as its frequently surreal lyrics, Rain Dogs is very much a follow-up to Swordfishtrombones, which is to say that it sounds for the most part like The Threepenny Opera being sung by Howlin' Wolf..."


Tracklist:

01. Singapore 02:45
02. Clap Hands 03:48
03. Cemetery Polka 01:46
04. Jockey Full Of Bourbon 02:46
05. Tango Till They're Sore 02:51
06. Big Black Mariah 02:43
07. Diamonds & Gold 02:32
08. Hang Down Your Head (Kathleen Brennan, Waits) 02:33
09. Time 03:55
10. Rain Dogs 02:57
11. Midtown (Instrumental) 01:03
12. 9th & Hennepin 01:56
13. Gun Street Girl 04:37
14. Union Square 02:24
15. Blind Love 04:20
16. Walking Spanish 03:07
17. Downtown Train 03:52
18. Bride Of Rain Dog (Instrumental) 01:10
19. Anywhere I Lay My Head 02:49

Exact Audio Copy V1.0 beta 3 from 29. August 2011

EAC extraction logfile from 9. November 2014, 10:55

Tom Waits / Rain Dogs PT-SHM

Used drive : PLEXTOR BD-R PX-B950SA Adapter: 6 ID: 0

Read mode : Secure
Utilize accurate stream : Yes
Defeat audio cache : Yes
Make use of C2 pointers : No

Read offset correction : 6
Overread into Lead-In and Lead-Out : No
Fill up missing offset samples with silence : Yes
Delete leading and trailing silent blocks : No
Null samples used in CRC calculations : Yes
Used interface : Native Win32 interface for Win NT & 2000

Used output format : Internal WAV Routines
Sample format : 44.100 Hz; 16 Bit; Stereo

TOC of the extracted CD Track | Start | Length | Start sector | End sector
---
1 | 0:00.00 | 2:45.52 | 0 | 12426
2 | 2:45.52 | 3:48.45 | 12427 | 29571
3 | 6:34.22 | 1:46.23 | 29572 | 37544
4 | 8:20.45 | 2:46.45 | 37545 | 50039
5 | 11:07.15 | 2:51.30 | 50040 | 62894
6 | 13:58.45 | 2:43.55 | 62895 | 75174
7 | 16:42.25 | 2:32.62 | 75175 | 86636
8 | 19:15.12 | 2:33.20 | 86637 | 98131
9 | 21:48.32 | 3:55.15 | 98132 | 115771
10 | 25:43.47 | 2:57.08 | 115772 | 129054
11 | 28:40.55 | 1:03.22 | 129055 | 133801
12 | 29:44.02 | 1:56.53 | 133802 | 142554
13 | 31:40.55 | 4:37.57 | 142555 | 163386
14 | 36:18.37 | 2:24.63 | 163387 | 174249
15 | 38:43.25 | 4:20.02 | 174250 | 193751
16 | 43:03.27 | 3:07.18 | 193752 | 207794
17 | 46:10.45 | 3:52.05 | 207795 | 225199
18 | 50:02.50 | 1:10.52 | 225200 | 230501
19 | 51:13.27 | 2:49.73 | 230502 | 243249

Range status and errors

Selected range Filename C:UsersMeijinDesktopALLexxessTom Waits1985 Rain Dogs (Mini LP PT-SHM Universal Japan 2014)Tom Waits - Rain Dogs PT-SHM.wav Peak level 98.2 %
Extraction speed 7.2 X
Range quality 99.9 %
Test CRC 034117C3
Copy CRC 034117C3
Copy OK

No errors occurred

AccurateRip summary

Track 1 accurately ripped (confidence 3) [28EBFA3C] (AR v2)
Track 2 accurately ripped (confidence 3) [DC66DB5A] (AR v2)
Track 3 accurately ripped (confidence 3) [5BC42816] (AR v2)
Track 4 accurately ripped (confidence 3) [E4F3D640] (AR v2)
Track 5 accurately ripped (confidence 3) [C833B050] (AR v2)
Track 6 accurately ripped (confidence 3) [FBC229FF] (AR v2)
Track 7 accurately ripped (confidence 3) [618D646E] (AR v2)
Track 8 accurately ripped (confidence 3) [9A68A012] (AR v2)
Track 9 accurately ripped (confidence 3) [1C12B80C] (AR v2)
Track 10 accurately ripped (confidence 3) [37FA61BA] (AR v2)
Track 11 accurately ripped (confidence 3) [9644F951] (AR v2)
Track 12 accurately ripped (confidence 3) 95B6FC4 (AR v2)
Track 13 accurately ripped (confidence 3) [1D4358EC] (AR v2)
Track 14 accurately ripped (confidence 3) [956DEE0B] (AR v2)
Track 15 accurately ripped (confidence 3) [CF434BBF] (AR v2)
Track 16 accurately ripped (confidence 3) [C4AE069A] (AR v2)
Track 17 accurately ripped (confidence 3) [EAFE96B4] (AR v2)
Track 18 accurately ripped (confidence 3) [79F8220A] (AR v2)
Track 19 accurately ripped (confidence 3) [D4CA0555] (AR v2)

All tracks accurately ripped

End of status report

foobar2000 1.2.9 / Dynamic Range Meter 1.1.1
log date: 2014-11-23 03:52:17

--
Analyzed: Tom Waits / Rain Dogs PT-SHM
--

DR Peak RMS Duration Track
--
DR13 -3.88 dB -19.15 dB 2:46 01-Singapore
DR15 -2.37 dB -19.08 dB 3:49 02-Clap Hands
DR15 -2.54 dB -20.06 dB 1:46 03-Cemetery Polka
DR13 -3.12 dB -18.47 dB 2:47 04-Jockey Full Of Bourbon
DR15 -1.17 dB -18.94 dB 2:51 05-Tango Till They're Sore
DR14 -0.15 dB -16.50 dB 2:44 06-Big Black Mariah
DR14 -3.65 dB -19.15 dB 2:33 07-Diamonds And Gold
DR13 -3.28 dB -17.78 dB 2:33 08-Hang Down Your Head
DR14 -6.39 dB -23.29 dB 3:55 09-Time
DR14 -2.96 dB -19.46 dB 2:57 10-Rain Dogs
DR12 -6.75 dB -20.86 dB 1:03 11-Midtown (Instrumental)
DR12 -3.87 dB -20.29 dB 1:57 12-9Th & Hennepin
DR14 -2.84 dB -20.48 dB 4:38 13-Gun Street Girl
DR13 -3.73 dB -19.06 dB 2:25 14-Union Square
DR14 -4.20 dB -20.91 dB 4:20 15-Blind Love
DR16 -2.64 dB -20.75 dB 3:07 16-Walking Spanish
DR14 -1.75 dB -19.64 dB 3:52 17-Downtown Train
DR14 -2.75 dB -22.19 dB 1:11 18-Bridge Of Rain Dogs (Instrumental)
DR12 -4.44 dB -19.68 dB 2:50 19-Anywhere I Lay My Head
--

Number of tracks: 19
Official DR value: DR14

Samplerate: 44100 Hz
Channels: 2
Bits per sample: 16
Bitrate: 678 kbps
Codec: FLAC

[CUETools log; Date: 23.11.2014 1:54:49; Version: 2.1.4]
[CTDB TOCID: ygem__l2QjVPt7gi.epoSmaAvoc-] found.
Track | CTDB Status
1 | (2/2) Accurately ripped
2 | (2/2) Accurately ripped
3 | (2/2) Accurately ripped
4 | (2/2) Accurately ripped
5 | (2/2) Accurately ripped
6 | (2/2) Accurately ripped
7 | (2/2) Accurately ripped
8 | (2/2) Accurately ripped
9 | (2/2) Accurately ripped
10 | (2/2) Accurately ripped
11 | (2/2) Accurately ripped
12 | (2/2) Accurately ripped
13 | (2/2) Accurately ripped
14 | (2/2) Accurately ripped
15 | (2/2) Accurately ripped
16 | (2/2) Accurately ripped
17 | (2/2) Accurately ripped
18 | (2/2) Accurately ripped
19 | (2/2) Accurately ripped
[AccurateRip ID: 0024ccdf-0204b0d7-f20cab13] found.
Track [ CRC | V2 ] Status
01 [6242e019|28ebfa3c] (0+3/3) Accurately ripped
02 [504dcbc2|dc66db5a] (0+3/3) Accurately ripped
03 54a2f72|5bc42816 (0+3/3) Accurately ripped
04 [211f96ea|e4f3d640] (0+3/3) Accurately ripped
05 87bb572|c833b050 (0+3/3) Accurately ripped
06 [3ab49e75|fbc229ff] (0+3/3) Accurately ripped
07 [64facf88|618d646e] (0+3/3) Accurately ripped
08 [d9964c14|9a68a012] (0+3/3) Accurately ripped
09 [4f220bd8|1c12b80c] (0+3/3) Accurately ripped
10 [a764d5d9|37fa61ba] (0+3/3) Accurately ripped
11 [3d22c126|9644f951] (0+3/3) Accurately ripped
12 [3a79ec61|b95b6fc4] (0+3/3) Accurately ripped
13 [ab3fd23c|1d4358ec] (0+3/3) Accurately ripped
14 [9006dda7|956dee0b] (0+3/3) Accurately ripped
15 [5bf22f09|cf434bbf] (0+3/3) Accurately ripped
16 [7a2d6a52|c4ae069a] (0+3/3) Accurately ripped
17 [c4b19bce|eafe96b4] (0+3/3) Accurately ripped
18 [18994eff|79f8220a] (0+3/3) Accurately ripped
19 [611f7b46|d4ca0555] (0+3/3) Accurately ripped

Track Peak [ CRC32 ] [W/O NULL] [ LOG ]
-- 98,2 [034117C3] [03B1BE3F] CRC32
01 63,9 [A9316976] [E24CF73D]
02 76,1 [1ED509CF] [72DC968B]
03 74,6 [7D42A88C] [50108961]
04 69,8 90749AB [7FE3921E]
05 87,4 4A21169 [320495EE]
06 98,2 [4EC6DCA6] [F33EC656]
07 65,7 [26892F21] [C624E73D]
08 68,5 [3C7C5A98] D4464F2
09 47,9 [EF2C63A7] [430A8D87]
10 71,0 [6DFBFE69] [71A0C69F]
11 45,9 [42941F1F] [EE6FE430]
12 64,0 [FB57E81D] [AA27BDA6]
13 72,1 [5A417C25] [DB225241]
14 65,0 [C9CF4C8C] [21D077BD]
15 61,6 [96FD9AAA] [AD5699C2]
16 73,7 [00C0FAC8] [AC0E73F0]
17 81,7 [81517493] [2FD50820]
18 72,8 [C31DE883] [A9500B39]
19 59,9 [82916E18] AEB059F

http://i63.fastpic.ru/big/2014/1127/8b/37821c6fe42ed4449846f2d1c7157c8b.jpg

DOWNLOAD
(Premium Recommended)

Uploaded.net:
nzgcw.TWaits85RDflac.part1.rar
nzgcw.TWaits85RDflac.part2.rar
nzgcw.TWaits85RDm4a.part1.rar
nzgcw.TWaits85RDm4a.part2.rar
nzgcw.TWaits85RDmp3320.rar
nzgcw.TWaits85RDScans.rar

Rapidgator.net:
nzgcw.TWaits85RDflac.part1.rar.html
nzgcw.TWaits85RDflac.part2.rar.html
nzgcw.TWaits85RDm4a.part1.rar.html
nzgcw.TWaits85RDm4a.part2.rar.html
nzgcw.TWaits85RDmp3320.rar.html
nzgcw.TWaits85RDScans.rar.html

Uploadable.ch:
nzgcw.TWaits85RDflac.part1.rar
nzgcw.TWaits85RDflac.part2.rar
nzgcw.TWaits85RDm4a.part1.rar
nzgcw.TWaits85RDm4a.part2.rar
nzgcw.TWaits85RDmp3320.rar
nzgcw.TWaits85RDScans.rar

Turbobit.net:
nzgcw.TWaits85RDflac.part1.rar.html
nzgcw.TWaits85RDflac.part2.rar.html
nzgcw.TWaits85RDm4a.part1.rar.html
nzgcw.TWaits85RDm4a.part2.rar.html
nzgcw.TWaits85RDmp3320.rar.html
nzgcw.TWaits85RDScans.rar.html

2Drive.net:
nzgcw.TWaits85RDflac.part1.rar
nzgcw.TWaits85RDflac.part2.rar
nzgcw.TWaits85RDm4a.part1.rar
nzgcw.TWaits85RDm4a.part2.rar
nzgcw.TWaits85RDmp3320.rar
nzgcw.TWaits85RDScans.rar

All above links are interchangable. No password
Direct Download

Tags: Universal

Tom Waits Rain Dogs 1985 [2014 Universal Music Japan UICY-40065] from rapidshare mediafire megaupload hotfile, Tom Waits Rain Dogs 1985 [2014 Universal Music Japan UICY-40065] via torrent or emule, full free Tom Waits Rain Dogs 1985 [2014 Universal Music Japan UICY-40065], Tom Waits Rain Dogs 1985 [2014 Universal Music Japan UICY-40065] rar zip password or anything related.

Comments:

Name:*
E-Mail:*
Add Comments:
Enter Code: *