Pandit Hariprasad Chaurasia - Live In Concert (2003)

Download Now

Pandit Hariprasad Chaurasia - Live In Concert (2003)

Pandit Hariprasad Chaurasia - Live In Concert (2003)
DVD rip | MP4: AVC (720 x 492, 1434 Kbps) | Audio: MP3 (160 Kbps) | 76 min | Hindi, English | 780 mb
Genre: world, Indian classical


Live In Concert is a 2003 DVD by Pandit Hariprasad Chaurasia. Known for playing the bansuri, or a bamboo wooden flute, this is taken from a live performance in Bombay (Mumbai). This was released by Cinebella.

1. Miya Ki Malhar
2. Raga Desh
3. Thumri

Hariprasad Chaurasia-bansuri
Rakesh Chaurasia-flute
Ustad Shajaat Ahmed Khan-tabla
Bhavani Shankar-pakhawaj
Rahman Ali-tanpura
Shree Dutt (Sharma)-tanpura

Pandit Hariprasad Chaurasia - Live In Concert (2003)


General
Complete name : E:\FLAC\AAA 2017\Pandit Hariprasad Chaurasia - Live In Concert (2003)\Pandit Hariprasad Chaurasia - Live In Concert.mp4
Format : MPEG-4
Format profile : Base Media / Version 2
Codec ID : mp42
File size : 781 MiB
Duration : 1h 16mn
Overall bit rate mode : Variable
Overall bit rate : 1 434 Kbps
Encoded date : UTC 2017-03-06 10:14:45
Tagged date : UTC 2017-03-06 12:15:36
Writing application : HandBrake 0.9.9 2013052900

Video
ID : 1
Format : AVC
Format/Info : Advanced Video Codec
Format profile : [email protected]
Format settings, CABAC : Yes
Format settings, ReFrames : 4 frames
Codec ID : avc1
Codec ID/Info : Advanced Video Coding
Duration : 1h 16mn
Bit rate : 1 269 Kbps
Width : 720 pixels
Height : 492 pixels
Display aspect ratio : 4:3
Frame rate mode : Constant
Frame rate : 29.970 fps
Color space : YUV
Chroma subsampling : 4:2:0
Bit depth : 8 bits
Scan type : Progressive
Bits/(Pixel*Frame) : 0.120
Stream size : 691 MiB (89%)
Writing library : x264 core 130 r2273 b3065e6
Encoding settings : cabac=1 / ref=1 / deblock=1:0:0 / analyse=0x1:0x111 / me=hex / subme=2 / psy=1 / psy_rd=1.00:0.00 / mixed_ref=0 / me_range=16 / chroma_me=1 / trellis=0 / 8x8dct=0 / cqm=0 / deadzone=21,11 / fast_pskip=1 / chroma_qp_offset=0 / threads=1 / lookahead_threads=1 / sliced_threads=0 / nr=0 / decimate=1 / interlaced=0 / bluray_compat=0 / constrained_intra=0 / bframes=3 / b_pyramid=2 / b_adapt=1 / b_bias=0 / direct=1 / weightb=1 / open_gop=0 / weightp=1 / keyint=300 / keyint_min=30 / scenecut=40 / intra_refresh=0 / rc_lookahead=10 / rc=crf / mbtree=1 / crf=20.0 / qcomp=0.60 / qpmin=0 / qpmax=69 / qpstep=4 / vbv_maxrate=20000 / vbv_bufsize=25000 / crf_max=0.0 / nal_hrd=none / ip_ratio=1.40 / aq=1:1.00
Encoded date : UTC 2017-03-06 10:14:45
Tagged date : UTC 2017-03-06 12:15:36
Color range : Limited
Color primaries : BT.601 NTSC
Transfer characteristics : BT.709
Matrix coefficients : BT.601

Audio
ID : 2
Format : AAC
Format/Info : Advanced Audio Codec
Format profile : LC
Codec ID : 40
Duration : 1h 16mn
Bit rate mode : Variable
Bit rate : 160 Kbps
Maximum bit rate : 313 Kbps
Channel(s) : 2 channels
Channel positions : Front: L R
Sampling rate : 48.0 KHz
Compression mode : Lossy
Stream size : 87.1 MiB (11%)
Title : Stereo
Language : English
Encoded date : UTC 2017-03-06 10:14:45
Tagged date : UTC 2017-03-06 12:15:36

Menu
ID : 3
Codec ID : text
Duration : 1h 16mn
Encoded date : UTC 2017-03-06 10:14:45
Tagged date : UTC 2017-03-06 12:15:36
Bit rate mode : CBR
00:00:00.000 : Chapter 1
00:00:50.817 : Chapter 2
00:27:01.052 : Chapter 3
00:58:53.663 : Chapter 4

Download link:



Links are Interchangeable - No Password - Single Extraction
Direct Download

Tags: Pandit, Hariprasad, Chaurasia, Concert

Pandit Hariprasad Chaurasia - Live In Concert (2003) from rapidshare mediafire megaupload hotfile, Pandit Hariprasad Chaurasia - Live In Concert (2003) via torrent or emule, full free Pandit Hariprasad Chaurasia - Live In Concert (2003), Pandit Hariprasad Chaurasia - Live In Concert (2003) rar zip password or anything related.

Comments:

Name:*
E-Mail:*
Add Comments:
Enter Code: *