Conspiracy Theory 1997

Download Now

http://i57.fastpic.ru/big/2014/0121/d9/34ead37c939e1e1f279a67f3ce4516d9.jpg
Conspiracy Theory (1997)
WEBDL 720p | MKV / AVC, 3916 Kbps | 1280x532 | 2h 15mn | 4.15 GB
English: AC3, 384 Kbps (6 ch) | Subtitles: English
Genre: Action | Crime | Mystery | Romance | Thriller

Jerry Fletcher is a man in love with a woman he observes from afar. She works for the government. Fletcher is an outspoken critic of that government. He has conspiracy theories for everything, from aliens to political assassinations. But soon, one of his theories finds itself to be accurate. But which one? Some dangerous people want him dead and the only person he trusts is that woman he loves but does not know.

imdb - 4 wins & 1 nomination

General
Unique ID : 248668878303632338521869543074114731466 (0xBB13E24705B8E4248BD1D16CCB467DCA)
Complete name : Conspiracy.Theory.1997.720p.WEB-DL.DD5.1.H.264-ViGi.mkv
Format : Matroska
Format version : Version 4 / Version 2
File size : 4.15 GiB
Duration : 2h 15mn
Overall bit rate : 4 387 Kbps
Encoded date : UTC 2013-09-16 22:11:27
Writing application : mkvmerge v6.3.0 ('You can't stop me!') built on Jun 27 2013 22:06:07
Writing library : libebml v1.3.0 + libmatroska v1.4.0

Video
ID : 1
Format : AVC
Format/Info : Advanced Video Codec
Format profile : [email protected]
Format settings, CABAC : No
Format settings, ReFrames : 2 frames
Codec ID : V_MPEG4/ISO/AVC
Duration : 2h 15mn
Bit rate : 3 916 Kbps
Width : 1 280 pixels
Height : 532 pixels
Display aspect ratio : 2.40:1
Frame rate mode : Constant
Frame rate : 23.976 fps
Color space : YUV
Chroma subsampling : 4:2:0
Bit depth : 8 bits
Scan type : Progressive
Bits/(Pixel*Frame) : 0.240
Stream size : 3.70 GiB (89%)
Language : English
Default : Yes
Forced : No
Color primaries : BT.709
Transfer characteristics : BT.709
Matrix coefficients : BT.709

Audio
ID : 2
Format : AC-3
Format/Info : Audio Coding 3
Mode extension : CM (complete main)
Format settings, Endianness : Big
Codec ID : A_AC3
Duration : 2h 15mn
Bit rate mode : Constant
Bit rate : 384 Kbps
Channel count : 6 channels
Channel positions : Front: L C R, Side: L R, LFE
Sampling rate : 48.0 KHz
Bit depth : 16 bits
Compression mode : Lossy
Stream size : 372 MiB (9%)
Language : English
Default : Yes
Forced : No

Text
ID : 3
Format : UTF-8
Codec ID : S_TEXT/UTF8
Codec ID/Info : UTF-8 Plain Text
Language : English
Default : Yes
Forced : No

screenshots:
http://i33.fastpic.ru/big/2014/0121/37/3d5e3317672debe3af410e9e2be16a37.jpg
http://i59.fastpic.ru/big/2014/0121/c8/6aeab5c2ef3bc2fc2fcad4a4f08f82c8.jpg
http://i59.fastpic.ru/big/2014/0121/de/16b401d97b71c8fb4d2424dab309fdde.jpg


DOWNLOAD LINKS
Buy Premium From My Links To Get Resumable Support & Max Speed & To Support Me

RapidGator:
vxfe2.Conspiracy.Theory.1997.720p.WEBDL.DD5.1.H.264ViGi.part01.rar.html
vxfe2.Conspiracy.Theory.1997.720p.WEBDL.DD5.1.H.264ViGi.part01.rev.html
vxfe2.Conspiracy.Theory.1997.720p.WEBDL.DD5.1.H.264ViGi.part02.rar.html
vxfe2.Conspiracy.Theory.1997.720p.WEBDL.DD5.1.H.264ViGi.part03.rar.html
vxfe2.Conspiracy.Theory.1997.720p.WEBDL.DD5.1.H.264ViGi.part04.rar.html
vxfe2.Conspiracy.Theory.1997.720p.WEBDL.DD5.1.H.264ViGi.part05.rar.html
vxfe2.Conspiracy.Theory.1997.720p.WEBDL.DD5.1.H.264ViGi.part06.rar.html
vxfe2.Conspiracy.Theory.1997.720p.WEBDL.DD5.1.H.264ViGi.part07.rar.html
vxfe2.Conspiracy.Theory.1997.720p.WEBDL.DD5.1.H.264ViGi.part08.rar.html
vxfe2.Conspiracy.Theory.1997.720p.WEBDL.DD5.1.H.264ViGi.part09.rar.html
vxfe2.Conspiracy.Theory.1997.720p.WEBDL.DD5.1.H.264ViGi.part10.rar.html
vxfe2.Conspiracy.Theory.1997.720p.WEBDL.DD5.1.H.264ViGi.part11.rar.html

DizzCloud:
vxfe2.Conspiracy.Theory.1997.720p.WEBDL.DD5.1.H.264ViGi.part01.rar
vxfe2.Conspiracy.Theory.1997.720p.WEBDL.DD5.1.H.264ViGi.part01.rev
vxfe2.Conspiracy.Theory.1997.720p.WEBDL.DD5.1.H.264ViGi.part02.rar
vxfe2.Conspiracy.Theory.1997.720p.WEBDL.DD5.1.H.264ViGi.part03.rar
vxfe2.Conspiracy.Theory.1997.720p.WEBDL.DD5.1.H.264ViGi.part04.rar
vxfe2.Conspiracy.Theory.1997.720p.WEBDL.DD5.1.H.264ViGi.part05.rar
vxfe2.Conspiracy.Theory.1997.720p.WEBDL.DD5.1.H.264ViGi.part06.rar
vxfe2.Conspiracy.Theory.1997.720p.WEBDL.DD5.1.H.264ViGi.part07.rar
vxfe2.Conspiracy.Theory.1997.720p.WEBDL.DD5.1.H.264ViGi.part08.rar
vxfe2.Conspiracy.Theory.1997.720p.WEBDL.DD5.1.H.264ViGi.part09.rar
vxfe2.Conspiracy.Theory.1997.720p.WEBDL.DD5.1.H.264ViGi.part10.rar
vxfe2.Conspiracy.Theory.1997.720p.WEBDL.DD5.1.H.264ViGi.part11.rar

RyuShare:
vxfe2.Conspiracy.Theory.1997.720p.WEBDL.DD5.1.H.264ViGi.part01.rar
vxfe2.Conspiracy.Theory.1997.720p.WEBDL.DD5.1.H.264ViGi.part01.rev
vxfe2.Conspiracy.Theory.1997.720p.WEBDL.DD5.1.H.264ViGi.part02.rar
vxfe2.Conspiracy.Theory.1997.720p.WEBDL.DD5.1.H.264ViGi.part03.rar
vxfe2.Conspiracy.Theory.1997.720p.WEBDL.DD5.1.H.264ViGi.part04.rar
vxfe2.Conspiracy.Theory.1997.720p.WEBDL.DD5.1.H.264ViGi.part05.rar
vxfe2.Conspiracy.Theory.1997.720p.WEBDL.DD5.1.H.264ViGi.part06.rar
vxfe2.Conspiracy.Theory.1997.720p.WEBDL.DD5.1.H.264ViGi.part07.rar
vxfe2.Conspiracy.Theory.1997.720p.WEBDL.DD5.1.H.264ViGi.part08.rar
vxfe2.Conspiracy.Theory.1997.720p.WEBDL.DD5.1.H.264ViGi.part09.rar
vxfe2.Conspiracy.Theory.1997.720p.WEBDL.DD5.1.H.264ViGi.part10.rar
vxfe2.Conspiracy.Theory.1997.720p.WEBDL.DD5.1.H.264ViGi.part11.rar

SecureUpload:
vxfe2.Conspiracy.Theory.1997.720p.WEBDL.DD5.1.H.264ViGi.part01.rar
vxfe2.Conspiracy.Theory.1997.720p.WEBDL.DD5.1.H.264ViGi.part01.rev
vxfe2.Conspiracy.Theory.1997.720p.WEBDL.DD5.1.H.264ViGi.part02.rar
vxfe2.Conspiracy.Theory.1997.720p.WEBDL.DD5.1.H.264ViGi.part03.rar
vxfe2.Conspiracy.Theory.1997.720p.WEBDL.DD5.1.H.264ViGi.part04.rar
vxfe2.Conspiracy.Theory.1997.720p.WEBDL.DD5.1.H.264ViGi.part05.rar
vxfe2.Conspiracy.Theory.1997.720p.WEBDL.DD5.1.H.264ViGi.part06.rar
vxfe2.Conspiracy.Theory.1997.720p.WEBDL.DD5.1.H.264ViGi.part07.rar
vxfe2.Conspiracy.Theory.1997.720p.WEBDL.DD5.1.H.264ViGi.part08.rar
vxfe2.Conspiracy.Theory.1997.720p.WEBDL.DD5.1.H.264ViGi.part09.rar
vxfe2.Conspiracy.Theory.1997.720p.WEBDL.DD5.1.H.264ViGi.part10.rar
vxfe2.Conspiracy.Theory.1997.720p.WEBDL.DD5.1.H.264ViGi.part11.rar


Links are Interchangeable - No Password
Direct Download

Tags: Theory, Conspiracy

Conspiracy Theory 1997 from rapidshare mediafire megaupload hotfile, Conspiracy Theory 1997 via torrent or emule, full free Conspiracy Theory 1997, Conspiracy Theory 1997 rar zip password or anything related.

Comments:

Name:*
E-Mail:*
Add Comments:
Enter Code: *