George Benson Guitar Techniques (2015)

Download Now

George Benson Guitar Techniques (2015)

George Benson Guitar Techniques
DVDRip | English | MP4 | 768 x 576 | AVC ~1500 kbps | 25 fps
AAC | 128 Kbps | 48.0 KHz | 2 channels | 01:37:10 | 1.11 GB
Genre: eLearning Video / Guitar lesson (2015)

"Learn George Benson's jazz guitar techniques with Stuart Bull Jazz Runs, double stops, chromatic licks This excellent two hour DVD will teach you some of the guitar techniques that influenced jazz guitarists worldwide! If you're looking to take your playing to the next level, this DVD will provide you with an arsenal of Jazz style licks that you can incorporate into your own solos!"

General
Complete name : 2_Licks_11-20.mp4
Format
: MPEG-4
Format profile : Base Media
Codec ID
: isom
File size
: 261 MiB
Duration
: 22mn 25s
Overall bit rate mode : Variable
Overall bit rate : 1 630 Kbps
Encoded date : UTC 2014-10-24 14:31:21
Tagged date
: UTC 2014-10-24 14:31:21

Video
ID : 1
Format
: AVC
Format/Info
: Advanced Video Codec
Format profile : [email protected]
Format settings, CABAC : No
Format settings, ReFrames : 1 frame
Codec ID
: avc1
Codec ID/Info : Advanced Video Coding
Duration
: 22mn 24s
Bit rate
: 1 500 Kbps
Maximum bit rate : 2 750 Kbps
Width
: 768 pixels
Height
: 576 pixels
Display aspect ratio : 4:3
Frame rate mode : Constant
Frame rate
: 25.000 fps
Color space
: YUV
Chroma subsampling

: 4:2:0
Bit depth
: 8 bits
Scan type
: Progressive
Bits/(Pixel*Frame)

: 0.136
Stream size
: 240 MiB (92%)
Writing library : x264 core 142 r2479kMod dd79a61
Encoding settings: cabac=0 / ref=1 / deblock=0:0:0 / analyse=0:0 / me=dia / subme=0 / psy=1 / fade_compensate=0.00 / psy_rd=1.00:0.00 / mixed_ref=0 / me_range=16 / chroma_me=1 / trellis=0 / 8x8dct=0 / cqm=0 / deadzone=21,11 / fast_pskip=1 / chroma_qp_offset=0 / threads=12 / lookahead_threads=2 / sliced_threads=0 / nr=0 / decimate=1 / interlaced=0 / bluray_compat=0 / constrained_intra=0 / fgo=0 / bframes=0 / weightp=0 / keyint=250 / keyint_min=25 / scenecut=0 / intra_refresh=0 / rc=2pass / mbtree=0 / bitrate=1500 / ratetol=1.0 / qcomp=0.60 / qpmin=0 / qpmax=69 / qpstep=4 / cplxblur=20.0 / qblur=0.5 / ip_ratio=1.40 / aq=0
Encoded date : UTC 2014-10-24 14:31:21
Tagged date
: UTC 2014-10-24 14:31:24

Audio
ID : 2
Format
: AAC
Format/Info
: Advanced Audio Codec
Format profile : LC
Codec ID
: 40
Duration
: 22mn 25s
Bit rate mode : Variable
Bit rate
: 128 Kbps
Maximum bit rate : 141 Kbps
Channel(s)
: 2 channels
Channel positions: Front: L R
Sampling rate : 48.0 KHz
Compression mode : Lossy
Stream size
: 20.5 MiB (8%)
Encoded date : UTC 2014-10-24 14:29:57
Tagged date
: UTC 2014-10-24 14:31:24

Screenshots

George Benson Guitar Techniques (2015)

George Benson Guitar Techniques (2015)

George Benson Guitar Techniques (2015)


Buy Premium Account To Get Resumable Support & Max Speed




Links are Interchangeable - No Password
Direct Download

Tags: George, Benson, Guitar, Techniques

George Benson Guitar Techniques (2015) from rapidshare mediafire megaupload hotfile, George Benson Guitar Techniques (2015) via torrent or emule, full free George Benson Guitar Techniques (2015), George Benson Guitar Techniques (2015) rar zip password or anything related.

Comments:

Name:*
E-Mail:*
Add Comments:
Enter Code: *