Frankie Miller Easy Money 1980 [Remastered 2004]

Download Now

http://i68.fastpic.ru/big/2014/1217/73/9a78ec32b3d187be875aad7fc5fbc573.jpg

Frankie Miller - Easy Money (1980) [Remastered 2004]
EAC Rip | FLAC: Tracks+Cue+Log | 335 Mb | MP3 CBR 320 kbps | 112 Mb | Scans | Time: 46:15
Genre: Rock, Blue-Eyed Soul, Pub Rock, Blues/Country | Label: Eagle Records | Cat.鈩? EAMCD156 · GAS 0000156 EAM

"This time out Scotsman Frankie Miller finds himself in Nashville playing with some of the finest sidemen that city has. But, despite the location, Frankie turns in another fine album of R&B material. Much of the material is original but the covers he chooses are interesting, including one from Australia's Jojo Zep. Also of note: 4 years later, The Bellamy Brothers hit the country chart with Frankie's composition "Forget About Me.""




Track Listing

01. Easy Money (03:20)
02. The Woman In You (03:18)
03. Why Don't You Spend The Night (03:12)
04. So Young, So Young (03:34)
05. Forget About Me (03:20)
06. Heartbreak Radio (03:21)
07. Cheap... Thrill (03:14)
08. No Chance (03:00)
09. Gimme Love (03:01)
10. Tears (03:32)

Bonus Tracks
11. Lock Up Your Secretaries (Demo) (02:19)
12. The Woman In You (Demo) (03:45)
13. Beggin' For Trouble (Demo) (03:25)
14. Lonely Eyes (Demo) (03:47)

Produced by Hitmen and Frankie Miller

Personnel

* Frankie Miller - vocals
* Larry Londin - drums and percussion
* Reggie Young - electric guitar
* Bobby Thompson - acoustic guitar
* Joe Osborne - bass

Exact Audio Copy V0.99 prebeta 4 from 23. January 2008

EAC extraction logfile from 12. May 2008, 19:54

Frankie Miller / Easy Money {Remastered & Expanded 2004}

Used drive : LITE-ON LTR-52327S Adapter: 2 ID: 0

Read mode : Secure
Utilize accurate stream : Yes
Defeat audio cache : Yes
Make use of C2 pointers : No

Read offset correction : 6
Overread into Lead-In and Lead-Out : No
Fill up missing offset samples with silence : Yes
Delete leading and trailing silent blocks : No
Null samples used in CRC calculations : Yes
Used interface : Installed external ASPI interface
Gap handling : Appended to previous track

Used output format : User Defined Encoder
Selected bitrate : 320 kBit/s
Quality : High
Add ID3 tag : No
Command line compressor : C:ProgramExact Audio Copyflac.exe
Additional command line options : -8 -V -T "ARTIST=%a" -T "TITLE=%t" -T "ALBUM=%g" -T "DATE=%y" -T "TRACKNUMBER=%n" -T "GENRE=%m" -T "COMMENT=EAC Flac 1.2.1b -8" %s

TOC of the extracted CD Track | Start | Length | Start sector | End sector
-----------
1 | 0:00.00 | 3:20.61 | 0 | 15060
2 | 3:20.61 | 3:18.41 | 15061 | 29951
3 | 6:39.27 | 3:12.31 | 29952 | 44382
4 | 9:51.58 | 3:34.08 | 44383 | 60440
5 | 13:25.66 | 3:20.55 | 60441 | 75495
6 | 16:46.46 | 3:21.56 | 75496 | 90626
7 | 20:08.27 | 3:14.11 | 90627 | 105187
8 | 23:22.38 | 3:00.37 | 105188 | 118724
9 | 26:23.00 | 3:01.31 | 118725 | 132330
10 | 29:24.31 | 3:32.00 | 132331 | 148230
11 | 32:56.31 | 2:19.64 | 148231 | 158719
12 | 35:16.20 | 3:45.52 | 158720 | 175646
13 | 39:01.72 | 3:25.29 | 175647 | 191050
14 | 42:27.26 | 3:47.51 | 191051 | 208126

Track 1 Filename E:RipFrankie Miller - Easy Money (1980) [FLAC] {Remastered & Expanded 2004}1 - Easy Money.wav Pre-gap length 0:00:02.00 Peak level 99.3 %
Track quality 100.0 %
Test CRC 8D675BDF
Copy CRC 8D675BDF
Track not present in AccurateRip database
Copy OK

Track 2 Filename E:RipFrankie Miller - Easy Money (1980) [FLAC] {Remastered & Expanded 2004}2 - The Woman In You.wav Pre-gap length 0:00:02.56 Peak level 98.6 %
Track quality 99.9 %
Test CRC FC205BF5
Copy CRC FC205BF5
Track not present in AccurateRip database
Copy OK

Track 3 Filename E:RipFrankie Miller - Easy Money (1980) [FLAC] {Remastered & Expanded 2004}3 - Why Don't You Spend The Night.wav Pre-gap length 0:00:02.57 Peak level 98.5 %
Track quality 100.0 %
Test CRC 35116E37
Copy CRC 35116E37
Track not present in AccurateRip database
Copy OK

Track 4 Filename E:RipFrankie Miller - Easy Money (1980) [FLAC] {Remastered & Expanded 2004}4 - So Young So Young.wav Pre-gap length 0:00:02.57 Peak level 98.6 %
Track quality 100.0 %
Test CRC 3D3A1552
Copy CRC 3D3A1552
Track not present in AccurateRip database
Copy OK

Track 5 Filename E:RipFrankie Miller - Easy Money (1980) [FLAC] {Remastered & Expanded 2004}5 - Forget About Me.wav Pre-gap length 0:00:02.57 Peak level 98.7 %
Track quality 100.0 %
Test CRC EC495B42
Copy CRC EC495B42
Track not present in AccurateRip database
Copy OK

Track 6 Filename E:RipFrankie Miller - Easy Money (1980) [FLAC] {Remastered & Expanded 2004}6 - Heartbreak Radio.wav Pre-gap length 0:00:02.57 Peak level 98.8 %
Track quality 100.0 %
Test CRC AE9896B1
Copy CRC AE9896B1
Track not present in AccurateRip database
Copy OK

Track 7 Filename E:RipFrankie Miller - Easy Money (1980) [FLAC] {Remastered & Expanded 2004}7 - Cheap...Thrills.wav Pre-gap length 0:00:02.57 Peak level 99.0 %
Track quality 100.0 %
Test CRC A5C0D1E1
Copy CRC A5C0D1E1
Track not present in AccurateRip database
Copy OK

Track 8 Filename E:RipFrankie Miller - Easy Money (1980) [FLAC] {Remastered & Expanded 2004}8 - No Chance.wav Pre-gap length 0:00:02.57 Peak level 98.8 %
Track quality 100.0 %
Test CRC F38EBAC9
Copy CRC F38EBAC9
Track not present in AccurateRip database
Copy OK

Track 9 Filename E:RipFrankie Miller - Easy Money (1980) [FLAC] {Remastered & Expanded 2004}9 - Gimme Love.wav Pre-gap length 0:00:02.57 Peak level 98.7 %
Track quality 100.0 %
Test CRC 7F1A3FD2
Copy CRC 7F1A3FD2
Track not present in AccurateRip database
Copy OK

Track 10 Filename E:RipFrankie Miller - Easy Money (1980) [FLAC] {Remastered & Expanded 2004}10 - Tears.wav Pre-gap length 0:00:02.57 Peak level 98.6 %
Track quality 100.0 %
Test CRC A0854F78
Copy CRC A0854F78
Track not present in AccurateRip database
Copy OK

Track 11 Filename E:RipFrankie Miller - Easy Money (1980) [FLAC] {Remastered & Expanded 2004}11 - Lock Up Your Secretaries (Demo).wav Pre-gap length 0:00:02.57 Peak level 100.0 %
Track quality 100.0 %
Test CRC BCC6D670
Copy CRC BCC6D670
Track not present in AccurateRip database
Copy OK

Track 12 Filename E:RipFrankie Miller - Easy Money (1980) [FLAC] {Remastered & Expanded 2004}12 - The Woman In You (Demo).wav Pre-gap length 0:00:02.57 Peak level 100.0 %
Track quality 100.0 %
Test CRC F0362844
Copy CRC F0362844
Track not present in AccurateRip database
Copy OK

Track 13 Filename E:RipFrankie Miller - Easy Money (1980) [FLAC] {Remastered & Expanded 2004}13 - Beggin' For Trouble (Demo).wav Pre-gap length 0:00:02.57 Peak level 100.0 %
Track quality 100.0 %
Test CRC 7275757E
Copy CRC 7275757E
Track not present in AccurateRip database
Copy OK

Track 14 Filename E:RipFrankie Miller - Easy Money (1980) [FLAC] {Remastered & Expanded 2004}14 - Lonely Eyes (Demo).wav Pre-gap length 0:00:02.57 Peak level 100.0 %
Track quality 100.0 %
Test CRC 4CA81098
Copy CRC 4CA81098
Track not present in AccurateRip database
Copy OK

None of the tracks are present in the AccurateRip database

No errors occurred

End of status report

Many thanks to the original uploader: croca64
DOWNLOAD
(Premium Recommended)


All above links are interchangable. No password
Direct Download

Tags: Remastered, Miller, Frankie

Frankie Miller Easy Money 1980 [Remastered 2004] from rapidshare mediafire megaupload hotfile, Frankie Miller Easy Money 1980 [Remastered 2004] via torrent or emule, full free Frankie Miller Easy Money 1980 [Remastered 2004], Frankie Miller Easy Money 1980 [Remastered 2004] rar zip password or anything related.

Comments:

Name:*
E-Mail:*
Add Comments:
Enter Code: *