Queen Hungarian Rhapsody Queen Live In Budapest 2012 [Japan SHM-CD 2CD]

Download Now

http://i63.fastpic.ru/big/2014/1214/fb/1958bead49a2773ccfc711d0846748fb.jpg

Queen - Hungarian Rhapsody: Queen Live In Budapest (2012) [Japan SHM-CD, 2CD]
EAC Rip | FLAC: Image+Cue+Log | 772 Mb | MP3 CBR 320 kbps | 315 Mb | Scans | 105 Mb | Time: 57:46 + 48:54
Genre: Rock, Arena Rock, Classic Rock, Glam Rock | Label: Universal | Cat.№: UIBY-75015/UICX-75072·73

"Hungarian Rhapsody: Queen Live in Budapest is a concert film of English rock band Queen's performance at the concert in Budapest on 27 July 1986, starring Freddie Mercury, Brian May, Roger Taylor and John Deacon. The film had a limited release in theatres worldwide on 20 September 2012. The concert was released on DVD and Blu-ray for the first time on 5 November 2012 worldwide, except in the United States where it was released a day later."




DISC 1

01. One Vision (05:37)
02. Tie Your Mother Down (04:41)
03. In The Lap Of The Gods... Revisited (02:16)
04. Seven Seas Of Rhye (01:40)
05. Tear It Up (01:47)
06. A Kind Of Magic (08:21)
07. Under Pressure (03:49)
08. Another One Bites The Dust (04:56)
09. Who Wants To Live Forever (03:59)
10. I Want To Break Free (03:33)
11. Looks Like It's Gonna Be A Good Night - Improv (03:38)
12. Guitar Solo (07:23)
13. Now I'm Here (06:00)

http://i66.fastpic.ru/big/2014/1214/70/f31c19e0a4534b31d124ad137e162370.jpg


DISC 2

01. Love Of My Live (04:37)
02. Tavaszi Szel Vizet Araszt (02:15)
03. Is This The World We Created...? (02:31)
04. (You're So Square) Baby I Don't Care (01:28)
05. Hello Mary Lou (Goodbye Heart) (02:23)
06. Tutti Frutti (03:35)
07. Bohemian Rhapsody (05:30)
08. Hammer To Fall (05:06)
09. Crazy Little Thing Called Love (04:52)
10. Radio Ga Ga (06:11)
11. We Will Rock You (03:02)
12. Friends Will Be Friends (02:01)
13. We Are The Champions (03:51)
14. God Save The Queen (01:23)

Executive Producers: JIM BEACH and LÁSZLÓ HEGEDÜS

The Band

* Freddie Mercury
* John Deacon
* Roger Taylor
* Brian May

Notes

Queen Concert Movie ‘Hungarian Rhapsody' On The Big Screen For The First Time At A Cinema Near You From 20th September 2012

Hungarian Rhapsody: Queen Live In Budapest ‘86 is a must-see event for Queen fans released in cinemas worldwide from 20 September 2012. The film is expected to play on screens in over 30 territories worldwide. In the UK it will be screened in all the major cities, around 100 cinemas nationwide.

Cinema listings and ticket booking links will be available soon at www.queenonline.com with new venues being added on a regular basis.

Originally filmed in 1986, this momentous concert movie has been re-mastered in high definition and superb 5.1 surround sound for its first-ever cinema screening and opens with a special 25 minute documentary feature following legends of rock, Queen, from just after their historic show-stealing performance at Live Aid on 13 July 1985 through the following year leading up to the concert in Budapest.

As part of the hugely successful 1986 Magic Tour that, poignantly, was the last to be played by Freddie Mercury, Queen were for the first time able to include Hungary on the tour schedule. With three years to go before the fall of the Berlin Wall, this was the largest concert ever staged at the Népstadion, Budapest, and the first Western Rock Concert staged in a stadium behind the then Iron Curtain. It was of such significance to the Hungarian authorities and film industry that a group of the country's top film cameramen and technicians were brought together to film it for posterity.

Staged for 80,000 ecstatic fans, the concert set includes favourite hits like Bohemian Rhapsody, Crazy Little Thing Called Love, I Want To Break Free and We Are The Champions. The resulting concert movie has been digitally re-mastered for the big screen and is introduced by a documentary feature that gives the inside track on events leading up to the Budapest concert. Using archive footage from rehearsals, interviews with the band and on the road during the Magic Tour - some of which has never been seen before - this fascinating intro feature has been specially created for the cinema release.
"We're delighted that Queen fans across the world will finally have the chance to relive this amazing moment for the band. We knew a stadium concert in Budapest was ground-breaking, but hadn't quite anticipated what a historic night it would turn out to be. The concert looks fantastic on the cinema screen in all its digitally re-mastered glory and the documentary does a great job of setting the scene - it really was an extraordinary time in the band's history." Brian May and Roger Taylor

Hungarian Rhapsody: Queen Live In Budapest ‘86 - a fantastic opportunity to dress up, sing along and celebrate the magic of Queen at your local cinema.

http://i65.fastpic.ru/big/2014/1214/eb/3b472e0f60ceac9c1ec6f730a09497eb.jpg



Exact Audio Copy V0.99 prebeta 5 from 4. May 2009

EAC extraction logfile from 13. October 2013, 16:35

Queen / Hungarian Rhapsody - Queen Live In Budapest '86 ICX-75072

Used drive : ASUS DRW-22B3L Adapter: 0 ID: 1

Read mode : Secure
Utilize accurate stream : Yes
Defeat audio cache : Yes
Make use of C2 pointers : No

Read offset correction : 6
Overread into Lead-In and Lead-Out : No
Fill up missing offset samples with silence : Yes
Delete leading and trailing silent blocks : No
Null samples used in CRC calculations : Yes
Used interface : Native Win32 interface for Win NT & 2000

Used output format : Internal WAV Routines
Sample format : 44.100 Hz; 16 Bit; Stereo

TOC of the extracted CD Track | Start | Length | Start sector | End sector
-----------
1 | 0:00.00 | 5:37.09 | 0 | 25283
2 | 5:37.09 | 4:41.49 | 25284 | 46407
3 | 10:18.58 | 2:16.62 | 46408 | 56669
4 | 12:35.45 | 1:40.62 | 56670 | 64231
5 | 14:16.32 | 1:47.14 | 64232 | 72270
6 | 16:03.46 | 8:21.00 | 72271 | 109845
7 | 24:24.46 | 3:49.69 | 109846 | 127089
8 | 28:14.40 | 4:56.23 | 127090 | 149312
9 | 33:10.63 | 3:59.09 | 149313 | 167246
10 | 37:09.72 | 3:33.19 | 167247 | 183240
11 | 40:43.16 | 3:38.36 | 183241 | 199626
12 | 44:21.52 | 7:23.67 | 199627 | 232918
13 | 51:45.44 | 6:00.35 | 232919 | 259953

Range status and errors

Selected range Filename D:Queen - Hungarian Rhapsody - Queen Live In Budapest '86 ICX-75072.wav Peak level 100.0 %
Range quality 100.0 %
Test CRC C388EF4A
Copy CRC C388EF4A
Copy OK

No errors occurred

AccurateRip summary

Track 1 accurately ripped (confidence 5) [5B021068]
Track 2 accurately ripped (confidence 5) [E5396C51]
Track 3 accurately ripped (confidence 5) [696F7627]
Track 4 accurately ripped (confidence 5) [16E0CDA6]
Track 5 accurately ripped (confidence 5) [0772A3DD]
Track 6 accurately ripped (confidence 5) [970079A9]
Track 7 accurately ripped (confidence 5) [52DCEE6F]
Track 8 accurately ripped (confidence 5) [5747106A]
Track 9 accurately ripped (confidence 5) [DAB465A2]
Track 10 accurately ripped (confidence 5) [8CA466CB]
Track 11 accurately ripped (confidence 5) 9B82CC7
Track 12 accurately ripped (confidence 5) [32D0ED37]
Track 13 accurately ripped (confidence 5) [044957AE]

All tracks accurately ripped

End of status report

Exact Audio Copy V0.99 prebeta 5 from 4. May 2009

EAC extraction logfile from 13. October 2013, 17:16

Queen / Hungarian Rhapsody - Queen Live In Budapest '86 ICX-75073

Used drive : ASUS DRW-22B3L Adapter: 0 ID: 1

Read mode : Secure
Utilize accurate stream : Yes
Defeat audio cache : Yes
Make use of C2 pointers : No

Read offset correction : 6
Overread into Lead-In and Lead-Out : No
Fill up missing offset samples with silence : Yes
Delete leading and trailing silent blocks : No
Null samples used in CRC calculations : Yes
Used interface : Native Win32 interface for Win NT & 2000

Used output format : Internal WAV Routines
Sample format : 44.100 Hz; 16 Bit; Stereo

TOC of the extracted CD Track | Start | Length | Start sector | End sector
-----------
1 | 0:00.00 | 4:37.40 | 0 | 20814
2 | 4:37.40 | 2:15.52 | 20815 | 30991
3 | 6:53.17 | 2:31.66 | 30992 | 42382
4 | 9:25.08 | 1:28.40 | 42383 | 49022
5 | 10:53.48 | 2:23.63 | 49023 | 59810
6 | 13:17.36 | 3:35.56 | 59811 | 75991
7 | 16:53.17 | 5:30.25 | 75992 | 100766
8 | 22:23.42 | 5:06.46 | 100767 | 123762
9 | 27:30.13 | 4:52.67 | 123763 | 145729
10 | 32:23.05 | 6:11.62 | 145730 | 173616
11 | 38:34.67 | 3:02.24 | 173617 | 187290
12 | 41:37.16 | 2:01.28 | 187291 | 196393
13 | 43:38.44 | 3:51.56 | 196394 | 213774
14 | 47:30.25 | 1:23.20 | 213775 | 220019

Range status and errors

Selected range Filename D:Queen - Hungarian Rhapsody - Queen Live In Budapest '86 ICX-75073.wav Peak level 100.0 %
Range quality 100.0 %
Test CRC 087F9F0C
Copy CRC 087F9F0C
Copy OK

No errors occurred

AccurateRip summary

Track 1 accurately ripped (confidence 5) 87D70CF
Track 2 accurately ripped (confidence 5) [F3891BD3]
Track 3 accurately ripped (confidence 5) [08C46B16]
Track 4 accurately ripped (confidence 5) [A6FBB758]
Track 5 accurately ripped (confidence 5) [3CE0DD6D]
Track 6 accurately ripped (confidence 5) [A2DCECEE]
Track 7 accurately ripped (confidence 5) [CABBA7FD]
Track 8 accurately ripped (confidence 5) [36ECEEF2]
Track 9 accurately ripped (confidence 5) [0C3B9F8E]
Track 10 accurately ripped (confidence 5) [2007ABAF]
Track 11 accurately ripped (confidence 5) [911D4CE3]
Track 12 accurately ripped (confidence 5) [DD8E6008]
Track 13 accurately ripped (confidence 5) [EAF901E6]
Track 14 accurately ripped (confidence 5) [D2FA9FDD]

All tracks accurately ripped

End of status report

Many thanks to the original uploader: Pretender
DOWNLOAD
(Premium Recommended)


All above links are interchangable. No password
Direct Download

Tags: Budapest, Hungarian, Rhapsody

Queen Hungarian Rhapsody Queen Live In Budapest 2012 [Japan SHM-CD 2CD] from rapidshare mediafire megaupload hotfile, Queen Hungarian Rhapsody Queen Live In Budapest 2012 [Japan SHM-CD 2CD] via torrent or emule, full free Queen Hungarian Rhapsody Queen Live In Budapest 2012 [Japan SHM-CD 2CD], Queen Hungarian Rhapsody Queen Live In Budapest 2012 [Japan SHM-CD 2CD] rar zip password or anything related.

Comments:

Name:*
E-Mail:*
Add Comments:
Enter Code: *